.
Авторизация | Регистрация

bitok.xyz

» » След лисицы на камнях (2019) WEB-DLRip (сезон 1, серии 1-4 из 4) торрент скачать бесплатно


    След лисицы на камнях (2019) WEB-DLRip (сезон 1, серии 1-4 из 4) торрент скачать бесплатно

    Дата: 27-10-2019, 05:00 | .torrent скачали: 3

    След лисицы на камнях (2019) WEB-DLRip (сезон 1, серии 1-4 из 4)Производство: Россия/Приор Продакшн
    Жанр: детектив
    Режиссер: Антон Павлючик

    Актеры
    Евгений Пронин, Алексей Вакулов, Светлана Смирнова-Кацагаджиева, Татьяна Казючиц, Евгений Славский, Евгений Иванов, Илья Савельев, Андрей Пынзару, Марина Старых, Евгений Филатов и др.

    Описание

    Цикл Приключения Бабкина и Илюшина по романам Елены Михалковой.
    Частных детективов Макара Илюшина и Сергея Бабкина нанимает Андрей Калашников — настоящий подвижник, который вложил все свое состояние и всю душу в полуразрушенный старинный терем в деревне Камышовка. После чего к нему явилась Вера Бакшаева, сестра бывшей владелицы, и заявила, что терем на самом деле принадлежал ей. Калашников потерял сознание, а очнувшись, увидел рядом труп Веры. В ужасе он закопал тело, но потом раскаялся и пришел в полицию с повинной, но Бакшаеву так и не нашли, ни живую, ни мертвую...

    Дата российской премьеры: 27 октября 2019 (ТВЦ)
    Продолжительность: ~00: 46: 00 серия
    Качество видео: WEB-DLRip
    Видео: Xvid, 720x400 (16: 9), ~1900 Kbps
    Аудио: AC3, 2 ch, 192 Kbps
    Общее
    Полное имя : G: След лисицы на камнях (2019)След лисицы на камнях.Серия 1.avi
    Формат : AVI
    Формат/Информация : Audio Video Interleave
    Размер файла : 699 Мбайт
    Продолжительность : 46 м. 27 с.
    Общий поток : 2105 Кбит/сек
    Программа кодирования : VirtualDubMod 1.5.10.3 |www.virtualdub-fr.org|| (build 2550/release)
    Библиотека кодирования : VirtualDubMod build 2550/release
    Видео
    Идентификатор : 0
    Формат : MPEG-4 Visual
    Профиль формата : Advanced Simple@L5
    Настройки формата : BVOP1/Custom Matrix
    Параметр BVOP формата : 1
    Параметр QPel формата : Нет
    Параметр GMC формата : Без точки перехода
    Параметр матрицы формата : Выборочная
    Идентификатор кодека : XVID
    Идентификатор кодека/Подсказка : XviD
    Продолжительность : 46 м. 27 с.
    Битрейт : 1903 Кбит/сек
    Ширина : 720 пикселей
    Высота : 400 пикселей
    Соотношение сторон : 16: 9
    Частота кадров : 25, 000 кадров/сек
    Цветовое пространство : YUV
    Субдискретизация насыщенности : 4: 2: 0
    Битовая глубина : 8 бит
    Тип развёртки : Прогрессивная
    Метод сжатия : С потерями
    Бит/(Пиксели*Кадры) : 0.264
    Размер потока : 632 Мбайт (90%)
    Библиотека кодирования : XviD 73
    Аудио
    Идентификатор : 1
    Формат : AC-3
    Формат/Информация : Audio Coding 3
    Коммерческое название : Dolby Digital
    Идентификатор кодека : 2000
    Продолжительность : 46 м. 27 с.
    Вид битрейта : Постоянный
    Битрейт : 192 Кбит/сек
    Каналы : 2 канала
    ChannelLayout : L R
    Частота : 48, 0 КГц
    Частота кадров : 31, 250 кадров/сек (1536 SPF)
    Метод сжатия : С потерями
    Размер потока : 63, 8 Мбайт (9%)
    Выравнивание : Разделение по промежуткам
    Продолжительность промежутка : 40 мс. (1, 00 видеокадр)
    Время предзагрузки промежутка : 500 мс.
    ServiceKind/String : Complete Main

    Скриншоты для ознакомления



    Все одноименные релизы в Клубе
    Время раздачи: 24/7 (круглосуточно) (до появления первых 3-5 скачавших)

    Онлайн видео След лисицы на камнях (2019) WEB



    След лисицы на камнях (2019) WEB-DLRip (сезон 1, серии 1-4 из 4)
    Рейтинг →
     (голосов: 1, оценка 5/5, голосовать можно 1 раз )

    Другие торренты по теме:

  • Елена Михалкова | След лисицы на камнях (2018) [FB2]
  • Елена Михалкова | След лисицы на камнях (2018) [MP3]
  • След лисицы на камнях (2019) WEB-DL [H.264 / 1080p-LQ] (сезон 1, серии 1-4 из 4)
  • След лисицы на камнях (2019) WEBRip [H.264] (серии 1-4 из 4)


    • Комментарии (0):

      Информация

      Информация

        Посетители, находящиеся в группе Гости, не могут оставлять комментарии в данной новости.

        ↓ Меню




        ↓ Опрос

        Вы добавили сайт в закладки?
        Да
        Нет


        Популярное