.
Авторизация | Регистрация

bitok.xyz

» » Доктор мафии / The Mob Doctor (2012-2013) WEB-DL [H.264 / 720p-LQ] (сезон 1, серии 1-13 из 13) SET, NewStudio торрент скачать бесплатно


    Доктор мафии / The Mob Doctor (2012-2013) WEB-DL [H.264 / 720p-LQ] (сезон 1, серии 1-13 из 13) SET, NewStudio торрент скачать бесплатно

    Дата: 27-10-2019, 05:00 | .torrent скачали: 2

    Доктор мафии / The Mob Doctor (2012-2013) WEB-DL [H.264 / 720p-LQ] (сезон 1, серии 1-13 из 13) SET, NewStudioПроизводство: США
    Жанр: триллер, драма, криминал, детектив
    Режиссер: Майкл Диннер, Кен Олин, Адам Аркин

    Актеры
    Джордана Спиро, Уильям Форсайт, Джеймс Карпинелло, Зак Гилфорд, Желько Иванек, Флориана Лима, Джейми Ли Киршнер, Уэнди Маккена, Джесси Ли Соффер, Кевин Дж. О’Коннор и др.

    Описание

    Для большинства врачей клятва Гиппократа священна. Но для одного доктора из Чикаго, которая оказалась в долгу у мафии, спасение жизней не на первом месте. The Mob Doctor — динамичная медицинская драма про талантливую молодую женщину, которая работает кардиохирургом днем, а ночью становится доктором для мафии, отрабатывая свои долги. Доктор Грейс Девлин — ведущий ординатор в медицинском центре Рузвельта в Чикаго. Умная, уверенная в себе, она один из самых многообещающих молодых хирургов страны. Но семейные узы крепко связивают ее с мафиозным миром чикагского Саутсайда. Чтобы выплатить игорный долг брата, она заключает сделку с дьяволом и соглашается работать на мафию.

    Возраст: 16+ (зрителям, достигшим 16 лет)
    Продолжительность: ~00: 44: 00 серия
    Качество видео: WEB-DL
    Перевод: многоголосый, профессиональный - SET,
    двухголосый, профессиональный - NewStudio
    Видео: AVC/H.264, 1280х720 (16: 9), ~4012 kbps
    Аудио 1: MP3, 2 ch, 128 kbps - русский, SET
    Аудио 2: AC3, 2 ch, 192 kbps - русский, NewStudio
    Аудио 3: E-AC3, 6 ch, 384 kbps - английский
    General
    Unique ID : 240580324333945433096739486685946326697 (0xB4FE15C6EB470D989A3464CF7B162EA9)
    Complete name : E: фильмыThe Mob Doctor - Доктор мафии (2012) WEB-DL 720pThe Mob Doctor 1. Pilot.mkv
    Format : Matroska
    Format version : Version 4/Version 2
    File size : 1.45 GiB
    Duration : 43 min 55 s
    Overall bit rate : 4 719 kb/s
    Encoded date : UTC 2016-12-18 04: 50: 20
    Writing application : mkvmerge v9.3.1 (\'Mask Machine\') 64bit
    Writing library : libebml v1.3.4 + libmatroska v1.4.5
    Video
    ID : 1
    Format : AVC
    Format/Info : Advanced Video Codec
    Format profile : High@L3.1
    Format settings, CABAC : No
    Format settings, ReFrames : 2 frames
    Format settings, GOP : N=1
    Codec ID : V_MPEG4/ISO/AVC
    Duration : 43 min 55 s
    Bit rate : 4 012 kb/s
    Width : 1 280 pixels
    Height : 720 pixels
    Display aspect ratio : 16: 9
    Frame rate mode : Constant
    Frame rate : 23.976 (23976/1000) FPS
    Color space : YUV
    Chroma subsampling : 4: 2: 0
    Bit depth : 8 bits
    Scan type : Progressive
    Bits/(Pixel*Frame) : 0.182
    Stream size : 1.23 GiB (85%)
    Language : English
    Default : Yes
    Forced : No
    Color range : Limited
    Color primaries : BT.709
    Transfer characteristics : BT.709
    Matrix coefficients : BT.709
    Audio #1
    ID : 2
    Format : MPEG Audio
    Format version : Version 1
    Format profile : Layer 3
    Codec ID : A_MPEG/L3
    Codec ID/Hint : MP3
    Duration : 43 min 55 s
    Bit rate mode : Constant
    Bit rate : 128 kb/s
    Channel(s) : 2 channels
    Sampling rate : 48.0 kHz
    Frame rate : 41.667 FPS (1152 spf)
    Compression mode : Lossy
    Stream size : 40.2 MiB (3%)
    Title : SET
    Writing library : LAME3.99r
    Encoding settings : -m s -V 4 -q 2 -lowpass 17 -b 128
    Language : Russian
    Default : No
    Forced : No
    Audio #2
    ID : 3
    Format : AC-3
    Format/Info : Audio Coding 3
    Mode extension : CM (complete main)
    Format settings, Endianness : Big
    Codec ID : A_AC3
    Duration : 43 min 55 s
    Bit rate mode : Constant
    Bit rate : 192 kb/s
    Channel(s) : 2 channels
    Channel positions : Front: L R
    Sampling rate : 48.0 kHz
    Frame rate : 31.250 FPS (1536 spf)
    Compression mode : Lossy
    Stream size : 60.3 MiB (4%)
    Title : NewStudio
    Language : Russian
    Default : Yes
    Forced : No
    Audio #3
    ID : 4
    Format : AC-3
    Format/Info : Audio Coding 3
    Mode extension : CM (complete main)
    Format settings, Endianness : Big
    Codec ID : A_AC3
    Duration : 43 min 55 s
    Bit rate mode : Constant
    Bit rate : 384 kb/s
    Channel(s) : 6 channels
    Channel positions : Front: L C R, Side: L R, LFE
    Sampling rate : 48.0 kHz
    Frame rate : 31.250 FPS (1536 spf)
    Compression mode : Lossy
    Stream size : 121 MiB (8%)
    Language : English
    Default : No
    Forced : No

    Скриншоты для ознакомления



    Все одноименные релизы в Клубе
    Время раздачи: 24/7 (до появления первых 3-5 скачавших)

    Онлайн видео Доктор мафии



    Доктор мафии/The Mob Doctor (2012-2013) WEB-DL [H.264/720p-LQ] (сезон 1, серии 1-13 из 13) SET, NewStudio
    Рейтинг →
     (голосов: 1, оценка 3/5, голосовать можно 1 раз )

    Другие торренты по теме:

  • Доктор Рихтер / Доктор Хаус (2016) SATRip (сезон 1, серии 1-2 из 21) (обновляемая) [AD]
  • Раш / Натиск / Доктор Кайф / Rush (US) (2014) WEB-DL [H.264 / 720p-LQ] (Сезон 1, Серии 1-9 из 10) IDEAFILM (обновляемая) скачать через торрент бесплатно
  • Доктор Кто / Doctor Who (2014) WEB-DL [H.264 / 720p-LQ] (Сезон 8, серии 1-6 из 12) (BaibaKo) (обновляемая) скачать через торрент бесплатно
  • Доктор Кто / Doctor Who (2014) WEB-DLRip (Сезон 8, серии 1-6 из 12) (BaibaKo) (обновляемая) скачать через торрент бесплатно
  • А. Кардашова | Наш доктор [2 книги] (1958 1962) [PDF]
  • Журнал | Домашний доктор №11 [Украина] (ноябрь 2014) [PDF] скачать через торрент бесплатно
  • Журнал | Домашний доктор №11 [Украина] (ноябрь 2014) [PDF] скачать через торрент бесплатно
  • Доктор Блейк / The Doctor Blake Mysteries (2014) WEB-DLRip (Сезон 2 / Серии 1-4 из 10) DreamRecords (обновляемая) скачать через торрент бесплатно


    • Комментарии (0):

      Информация

      Информация

        Посетители, находящиеся в группе Гости, не могут оставлять комментарии в данной новости.

        ↓ Меню




        ↓ Опрос

        Вы добавили сайт в закладки?
        Да
        Нет


        Популярное