.
Авторизация | Регистрация

bitok.xyz

» » Острые козырьки / Заточенные кепки / Peaky Blinders (2019) WEB-DL [H.264 / 1080p-LQ] (сезон 5, серии 1-6 из 6) LostFilm торрент скачать бесплатно


    Острые козырьки / Заточенные кепки / Peaky Blinders (2019) WEB-DL [H.264 / 1080p-LQ] (сезон 5, серии 1-6 из 6) LostFilm торрент скачать бесплатно

    Дата: 27-10-2019, 05:00 | .torrent скачали: 0

    Острые козырьки / Заточенные кепки / Peaky Blinders (2019) WEB-DL [H.264 / 1080p-LQ] (сезон 5, серии 1-6 из 6) LostFilmПроизводство: Великобритания/Caryn Mandabach Productions, Tiger Aspect Productions, British Broadcasting Corporation (BBC)
    Жанр: драма, криминал
    Режиссер: Кэрин Мэндабах, Джэми Глазенбрук, Джули Бринкман

    Актеры
    Киллиан Мёрфи, Хелен Маккрори, Финн Коул, Филип Гаскойн, Никола Симондз, Пол Дэй, Дэвид Аспиналл, Сэм Клафлин, Кит Ломас, Дуглас Рэнкин и др.

    Описание

    В пятом сезон любимого сериалае гангстерской саги события разворачиваются на фоне финансового кризиса 1929 года. Заседающий в парламенте Томас Шелби знакомится с харизматичным политиком Освальдом Мосли, который обладает крайне смелыми взглядами на будущее Великобритании. От исхода их взаимоотношений будет зависеть очень многое.
    У главы клана Шелби и в этом сезон любимого сериалае будет полно проблем, но как обычно самый главный его противник — это он сам.

    Возраст: 16+ (зрителям, достигшим 16 лет)
    Продолжительность: ~00: 57: 00 серия
    Качество видео: WEB-DL
    Перевод: Многоголосый профессиональный -LostFilm
    Язык субтитров: английский, русский
    Видео: AVC/H.264, 1920x960, ~6874 Kbps
    Аудио 1: AC3, 2 ch, 384 kbps — русский
    Аудио 2: E-AC3, 6 ch, 640 kbps — английский
    General
    Unique ID : 184770301162845977555588463359559267176 (0x8B01773088525660BBFC62D9C948F368)
    Complete name : D: Peaky.Blinders.S05.1080p.WEB-DL.P.LostFilmPeaky.Blinders.S05E01.1080p.WEB-DL.P.LostFilm.mkv
    Format : Matroska
    Format version : Version 4/Version 2
    File size : 3.12 GiB
    Duration : 56 min 37 s
    Overall bit rate : 7 900 kb/s
    Encoded date : UTC 2019-08-30 23: 27: 37
    Writing application : mkvmerge v9.1.0 (\'Little Earthquakes\') 32bit
    Writing library : libebml v1.3.3 + libmatroska v1.4.4
    Video
    ID : 2
    Format : AVC
    Format/Info : Advanced Video Codec
    Format profile : High@L4
    Format settings, CABAC : Yes
    Format settings, RefFrames : 4 frames
    Codec ID : V_MPEG4/ISO/AVC
    Duration : 56 min 37 s
    Bit rate mode : Constant
    Bit rate : 6 874 kb/s
    Nominal bit rate : 10 000 kb/s
    Width : 1 920 pixels
    Height : 960 pixels
    Display aspect ratio : 2.000
    Frame rate mode : Constant
    Frame rate : 25.000 FPS
    Color space : YUV
    Chroma subsampling : 4: 2: 0
    Bit depth : 8 bits
    Scan type : Progressive
    Bits/(Pixel*Frame) : 0.149
    Stream size : 2.72 GiB (87%)
    Default : Yes
    Forced : No
    Color range : Limited
    Color primaries : BT.709
    Transfer characteristics : BT.709
    Matrix coefficients : BT.709
    Audio #1
    ID : 1
    Format : AC-3
    Format/Info : Audio Coding 3
    Format settings, Endianness : Big
    Codec ID : A_AC3
    Duration : 56 min 37 s
    Bit rate mode : Constant
    Bit rate : 384 kb/s
    Channel(s) : 2 channels
    Channel positions : Front: L R
    Sampling rate : 48.0 kHz
    Frame rate : 31.250 FPS (1536 SPF)
    Bit depth : 16 bits
    Compression mode : Lossy
    Delay relative to video : 2 ms
    Stream size : 156 MiB (5%)
    Title : LostFilm
    Language : Russian
    Service kind : Complete Main
    Default : Yes
    Forced : No
    Audio #2
    ID : 3
    Format : E-AC-3
    Format/Info : Enhanced Audio Coding 3
    Format settings, Endianness : Big
    Codec ID : A_EAC3
    Duration : 56 min 37 s
    Bit rate mode : Constant
    Bit rate : 640 kb/s
    Channel(s) : 6 channels
    Channel positions : Front: L C R, Side: L R, LFE
    Sampling rate : 48.0 kHz
    Frame rate : 187.500 FPS (256 SPF)
    Compression mode : Lossy
    Stream size : 259 MiB (8%)
    Language : English
    Service kind : Complete Main
    Default : No
    Forced : No
    Text #1
    ID : 4
    Format : UTF-8
    Codec ID : S_TEXT/UTF8
    Codec ID/Info : UTF-8 Plain Text
    Duration : 54 min 42 s
    Bit rate : 60 b/s
    Count of elements : 740
    Stream size : 24.0 KiB (0%)
    Language : English
    Default : No
    Forced : No
    Text #2
    ID : 5
    Format : UTF-8
    Codec ID : S_TEXT/UTF8
    Codec ID/Info : UTF-8 Plain Text
    Duration : 54 min 42 s
    Bit rate : 60 b/s
    Count of elements : 740
    Stream size : 24.0 KiB (0%)
    Title : SDH
    Language : English
    Default : No
    Forced : No
    Text #3
    ID : 6
    Format : UTF-8
    Codec ID : S_TEXT/UTF8
    Codec ID/Info : UTF-8 Plain Text
    Duration : 54 min 43 s
    Bit rate : 94 b/s
    Count of elements : 718
    Stream size : 38.0 KiB (0%)
    Title : PhysKIds
    Language : Russian
    Default : Yes
    Forced : No


    Онлайн видео Острые козырьки



    Острые козырьки/Заточенные кепки/Peaky Blinders (2019) WEB-DL [H.264/1080p-LQ] (сезон 5, серии 1-6 из 6) LostFilm
    Рейтинг →
     (голосов: 1, оценка 4/5, голосовать можно 1 раз )

    Другие торренты по теме:



      Комментарии (0):

      Информация

      Информация

        Посетители, находящиеся в группе Гости, не могут оставлять комментарии в данной новости.

        ↓ Меню




        ↓ Опрос

        Вы добавили сайт в закладки?
        Да
        Нет


        Популярное