.
Авторизация | Регистрация

bitok.xyz

» » Полиция Чикаго / Chicago PD (2019) WEB-DL / WEBRip [H.264 / 1080p-LQ] (сезон 7, серии 1-3 из 22) TVShows (обновляемая) торрент скачать бесплатно


    Полиция Чикаго / Chicago PD (2019) WEB-DL / WEBRip [H.264 / 1080p-LQ] (сезон 7, серии 1-3 из 22) TVShows (обновляемая) торрент скачать бесплатно

    Дата: 27-10-2019, 05:00 | .torrent скачали: 0

    Полиция Чикаго / Chicago PD (2019) WEB-DL / WEBRip [H.264 / 1080p-LQ] (сезон 7, серии 1-3 из 22) TVShows (обновляемая)Производство: США
    Жанр: боевик, триллер, драма, криминал
    Режиссер: Марк Тинкер, Ник Гомез, Эрик Ла Салль

    Актеры
    Джейсон Бех, Джон Седа, София Буш, Джесси Ли Соффер, Патрик Флюгер, Марина Скверчати, Ларойс Хоукинс, Элиас Котеас, Эми Мортон, Арчи Као и др.

    Описание

    В центре сюжета находятся работники полицейского департамента города Чикаго, в частности две группы полицейских, которые находятся на разных ступенях власти.

    Возраст: 16+ (зрителям, достигшим 16 лет)
    Продолжительность: ~00: 43: 00 серия
    Качество видео: WEB-DL
    Качество видео 2 серии: WEB-Rip
    Перевод: Профессиональный многоголосый - TVShows
    Субтитры: английские
    Видео: AVC/H.264, 1920х1080 (16: 9), ~9282 Kbps
    Аудио1: АС3, 6 ch, 448 Kbps - русский
    Аудио2: Е-АС3, 6 ch, 640 Kbps - английский
    2 серия:
    Видео: AVC/H.264, 1920х1080 (16: 9), ~4096 Kbps
    Аудио1: АС3, 2 ch, 192 Kbps - русский
    Аудио2: AAC, 2 ch, 96 Kbps - английский
    General
    Unique ID : 135057951964873262741771757735448992278 (0x659B3723E8AD40CCD03837A90F4CDA16)
    Complete name : E: фильмыChicago.P.D.S07.1080p.TVShowsChicago.P.D.S07E01.1080p.TVShows.mkv
    Format : Matroska
    Format version : Version 4/Version 2
    File size : 3.04 GiB
    Duration : 41 min 58 s
    Overall bit rate : 10.4 Mb/s
    Encoded date : UTC 2019-09-28 15: 46: 31
    Writing application : mkvmerge v33.1.0 (\'Primrose\') 64-bit
    Writing library : libebml v1.3.7 + libmatroska v1.5.0
    Video
    ID : 1
    Format : AVC
    Format/Info : Advanced Video Codec
    Format profile : High@L4
    Format settings, CABAC : Yes
    Format settings, ReFrames : 4 frames
    Codec ID : V_MPEG4/ISO/AVC
    Duration : 41 min 58 s
    Bit rate mode : Constant
    Bit rate : 9 282 kb/s
    Nominal bit rate : 10 000 kb/s
    Width : 1 920 pixels
    Height : 1 080 pixels
    Display aspect ratio : 16: 9
    Frame rate mode : Constant
    Frame rate : 23.976 (24000/1001) FPS
    Color space : YUV
    Chroma subsampling : 4: 2: 0
    Bit depth : 8 bits
    Scan type : Progressive
    Bits/(Pixel*Frame) : 0.187
    Stream size : 2.72 GiB (89%)
    Default : Yes
    Forced : No
    Color range : Limited
    Color primaries : BT.709
    Transfer characteristics : BT.709
    Matrix coefficients : BT.709
    Audio #1
    ID : 2
    Format : AC-3
    Format/Info : Audio Coding 3
    Mode extension : CM (complete main)
    Format settings, Endianness : Big
    Codec ID : A_AC3
    Duration : 41 min 58 s
    Bit rate mode : Constant
    Bit rate : 448 kb/s
    Channel(s) : 6 channels
    Channel positions : Front: L C R, Side: L R, LFE
    Sampling rate : 48.0 kHz
    Frame rate : 31.250 FPS (1536 spf)
    Compression mode : Lossy
    Stream size : 134 MiB (4%)
    Title : TVShows
    Language : Russian
    Default : Yes
    Forced : Yes
    Audio #2
    ID : 3
    Format : E-AC-3
    Format/Info : Audio Coding 3
    Format settings, Endianness : Big
    Codec ID : A_EAC3
    Duration : 41 min 58 s
    Bit rate mode : Constant
    Bit rate : 640 kb/s
    Channel(s) : 6 channels
    Channel positions : Front: L C R, Side: L R, LFE
    Sampling rate : 48.0 kHz
    Frame rate : 187.500 FPS (256 spf)
    Compression mode : Lossy
    Stream size : 192 MiB (6%)
    Title : Original
    Language : English
    Default : No
    Forced : No
    Text
    ID : 4
    Format : UTF-8
    Codec ID : S_TEXT/UTF8
    Codec ID/Info : UTF-8 Plain Text
    Duration : 40 min 56 s
    Bit rate : 86 b/s
    Count of elements : 880
    Stream size : 26.0 KiB (0%)
    Title : English
    Language : English
    Default : No
    Forced : No

    General
    Unique ID : 319055171778505079048375891878306177824 (0xF007CA79FE834CAE700EFAD57784E320)
    Complete name : E: фильмыChicago.P.D.S07.1080p.TVShowsChicago.P.D.S07E02.1080p.TVShows.mkv
    Format : Matroska
    Format version : Version 4/Version 2
    File size : 1.28 GiB
    Duration : 41 min 58 s
    Overall bit rate : 4 376 kb/s
    Encoded date : UTC 2019-10-05 17: 07: 11
    Writing application : mkvmerge v33.1.0 (\'Primrose\') 64-bit
    Writing library : libebml v1.3.7 + libmatroska v1.5.0
    Video
    ID : 1
    Format : AVC
    Format/Info : Advanced Video Codec
    Format profile : Main@L4
    Format settings, CABAC : Yes
    Format settings, ReFrames : 1 frame
    Format settings, GOP : M=1, N=48
    Codec ID : V_MPEG4/ISO/AVC
    Duration : 41 min 58 s
    Bit rate : 4 096 kb/s
    Width : 1 920 pixels
    Height : 1 080 pixels
    Display aspect ratio : 16: 9
    Frame rate mode : Constant
    Frame rate : 23.976 (24000/1001) FPS
    Color space : YUV
    Chroma subsampling : 4: 2: 0
    Bit depth : 8 bits
    Scan type : Progressive
    Bits/(Pixel*Frame) : 0.082
    Stream size : 1.20 GiB (93%)
    Writing library : x264 core 152
    Encoding settings : cabac=1/ref=1/deblock=1: 0: 0/analyse=0x1: 0x111/me=hex/subme=6/psy=1/psy_rd=1.00: 0.00/mixed_ref=0/me_range=16/chroma_me=0/trellis=1/8x8dct=0/cqm=0/deadzone=21, 11/fast_pskip=1/chroma_qp_offset=-2/threads=8/lookahead_threads=1/sliced_threads=0/nr=0/decimate=1/interlaced=0/bluray_compat=0/constrained_intra=0/bframes=0/weightp=2/keyint=48/keyint_min=25/scenecut=0/intra_refresh=0/rc=abr/mbtree=0/bitrate=4096/ratetol=1.0/qcomp=0.60/qpmin=10/qpmax=51/qpstep=4/ip_ratio=1.40/aq=1: 1.00
    Default : Yes
    Forced : No
    Audio #1
    ID : 2
    Format : AC-3
    Format/Info : Audio Coding 3
    Mode extension : CM (complete main)
    Format settings, Endianness : Big
    Codec ID : A_AC3
    Duration : 41 min 58 s
    Bit rate mode : Constant
    Bit rate : 192 kb/s
    Channel(s) : 2 channels
    Channel positions : Front: L R
    Sampling rate : 48.0 kHz
    Frame rate : 31.250 FPS (1536 spf)
    Compression mode : Lossy
    Stream size : 57.6 MiB (4%)
    Title : TVShows
    Language : Russian
    Default : Yes
    Forced : Yes
    Audio #2
    ID : 3
    Format : AAC
    Format/Info : Advanced Audio Codec
    Format profile : LC
    Codec ID : A_AAC
    Duration : 41 min 58 s
    Bit rate : 96.0 kb/s
    Channel(s) : 2 channels
    Channel positions : Front: L R
    Sampling rate : 44.1 kHz
    Frame rate : 43.066 FPS (1024 spf)
    Compression mode : Lossy
    Stream size : 28.8 MiB (2%)
    Title : Original
    Language : English
    Default : No
    Forced : No
    Text
    ID : 4
    Format : UTF-8
    Codec ID : S_TEXT/UTF8
    Codec ID/Info : UTF-8 Plain Text
    Duration : 41 min 44 s
    Bit rate : 85 b/s
    Count of elements : 1452
    Stream size : 26.3 KiB (0%)
    Title : English
    Language : English
    Default : No
    Forced : No

    Скриншоты для ознакомления



    Все одноименные релизы в Клубе
    Время раздачи: с 19: 00 - 23: 00 (до появления первых 3-5 скачавших)

    Онлайн видео Полиция Чикаго



    Полиция Чикаго/Chicago PD (2019) WEB-DL/WEBRip [H.264/1080p-LQ] (сезон 7, серии 1-3 из 22) TVShows (обновляемая)
    Рейтинг →
     (голосов: 1, оценка 3/5, голосовать можно 1 раз )

    Другие торренты по теме:

  • Полиция Чикаго / Chicago PD (2014) WEB-DL [H.264 / 720p-LQ] (Сезон 2, серия 1 из ) (Шадинский) (обновляемая)
  • Полиция Чикаго / Chicago PD (2015) WEB-DLRip [H.264 / 720p-LQ] (сезон 3, серии 1-2 из 7) Шадинский (обновляемая) скачать через торрент бесплатно
  • Полиция Чикаго / Chicago PD (2016) WEB-DL (H.264 / 720p-LQ) (сезон 4, серии 1 из 22) Шадинский (обновляемая)
  • Полиция Чикаго / Chicago PD (2016) WEB-DL (H.264 / 720p-LQ) (сезон 4, серии 1-14 из 22) Шадинский (обновляемая)
  • Полиция Чикаго / Chicago PD (2017) WEB-DL [H.264 / 720p-LQ] (сезон 5, серии 1-22 из 22) Шадинский
  • Полиция Чикаго / Chicago PD (2018) WEB-DLRip [H.264 / 1080p-LQ] (сезон 6, серии 1-18 из 22) Шадинский [AD] (обновляемая)
  • Полиция Чикаго / Chicago PD (2019) WEB-Rip (сезон 7, серии 1-2 из 22) Шадинский (обновляемая)


    • Комментарии (0):

      Информация

      Информация

        Посетители, находящиеся в группе Гости, не могут оставлять комментарии в данной новости.

        ↓ Меню




        ↓ Опрос

        Вы добавили сайт в закладки?
        Да
        Нет


        Популярное