.
Авторизация | Регистрация

bitok.xyz

» » Пожарные Чикаго / Чикаго в Огне / Chicago Fire (2019) WEB-DL [H.264 / 1080p-LQ] (сезон 8, серии 1-4 из 22) TVShows (обновляемая) торрент скачать бесплатно


    Пожарные Чикаго / Чикаго в Огне / Chicago Fire (2019) WEB-DL [H.264 / 1080p-LQ] (сезон 8, серии 1-4 из 22) TVShows (обновляемая) торрент скачать бесплатно

    Дата: 27-10-2019, 05:00 | .torrent скачали: 0

    Пожарные Чикаго / Чикаго в Огне / Chicago Fire (2019) WEB-DL [H.264 / 1080p-LQ] (сезон 8, серии 1-4 из 22) TVShows (обновляемая)Производство: США/Wolf Films, Universal Television
    Жанр: драма
    Режиссер: Джо Чаппелль, Реза Табризи, Сэнфорд Букставер

    Актеры
    Джесси Спенсер, Тейлор Кинни, Кристиан Столте, Имонн Уолкер, Рэнди Флаглер, Джо Миносо, Дэвид Эйгенберг, Юрий Сардаров, Моника Реймунд, Энтони Феррарис и др.

    Описание

    Сериал рассказывает о самой тяжелой и опасной работе — пожарных и спасателей чикагского отделения Firehouse 51. Несмотря на повседневные геройства мужчин и женщин, их огромная самоотдача приводит к личным потерям. Главный герой Мэтью Кейси, прирожденный лидер и настоящий пожарный. Однако расставание с девушкой заставляет его взглянуть по-новому на многие вещи. Кроме этого, Кейси постоянно находится в конфронтации с другим членом своей команды — лейтенантом Келли Северайдом.

    Возраст: 16+ (зрителям, достигшим 16 лет)
    Продолжительность: ~00: 42: 00 серия
    Качество видео: WEB-DL
    Перевод: Профессиональный многоголосый - TVShows
    Субтитры: английские
    Видео: AVC/H.264, 1920х1080 (16: 9), ~9 420 kbps
    Аудио 1: AC3, 6 ch, 384 kbps - русский
    Аудио 2: E-AC3, 6 ch, 192 kbps - английский
    General
    Unique ID : 5646737405919583628589025108470511398 (0x43F85A61AF2A7D9C8FAE0E200DBB726)
    Complete name : E: фильмыChicago.Fire.S08.1080p.TVShowsChicago.Fire.S08E01.1080p.TVShows.mkv
    Format : Matroska
    Format version : Version 4/Version 2
    File size : 2.92 GiB
    Duration : 41 min 46 s
    Overall bit rate : 9 998 kb/s
    Encoded date : UTC 2019-09-29 14: 45: 58
    Writing application : mkvmerge v33.1.0 (\'Primrose\') 64-bit
    Writing library : libebml v1.3.7 + libmatroska v1.5.0
    Video
    ID : 1
    Format : AVC
    Format/Info : Advanced Video Codec
    Format profile : High@L4
    Format settings, CABAC : Yes
    Format settings, ReFrames : 4 frames
    Codec ID : V_MPEG4/ISO/AVC
    Duration : 41 min 46 s
    Bit rate mode : Constant
    Bit rate : 9 420 kb/s
    Nominal bit rate : 10 000 kb/s
    Width : 1 920 pixels
    Height : 1 080 pixels
    Display aspect ratio : 16: 9
    Frame rate mode : Constant
    Frame rate : 23.976 (24000/1001) FPS
    Color space : YUV
    Chroma subsampling : 4: 2: 0
    Bit depth : 8 bits
    Scan type : Progressive
    Bits/(Pixel*Frame) : 0.189
    Stream size : 2.75 GiB (94%)
    Language : English
    Default : Yes
    Forced : No
    Color range : Limited
    Color primaries : BT.709
    Transfer characteristics : BT.709
    Matrix coefficients : BT.709
    Audio #1
    ID : 2
    Format : AC-3
    Format/Info : Audio Coding 3
    Mode extension : CM (complete main)
    Format settings, Endianness : Big
    Codec ID : A_AC3
    Duration : 41 min 46 s
    Bit rate mode : Constant
    Bit rate : 384 kb/s
    Channel(s) : 6 channels
    Channel positions : Front: L C R, Side: L R, LFE
    Sampling rate : 48.0 kHz
    Frame rate : 31.250 FPS (1536 spf)
    Compression mode : Lossy
    Stream size : 115 MiB (4%)
    Title : TVShows
    Language : Russian
    Default : Yes
    Forced : Yes
    Audio #2
    ID : 3
    Format : E-AC-3
    Format/Info : Audio Coding 3
    Format settings, Endianness : Big
    Codec ID : A_EAC3
    Duration : 41 min 46 s
    Bit rate mode : Constant
    Bit rate : 192 kb/s
    Channel(s) : 6 channels
    Channel positions : Front: L C R, Side: L R, LFE
    Sampling rate : 48.0 kHz
    Frame rate : 187.500 FPS (256 spf)
    Compression mode : Lossy
    Stream size : 57.4 MiB (2%)
    Title : Original
    Language : English
    Default : No
    Forced : No
    Text
    ID : 4
    Format : UTF-8
    Codec ID : S_TEXT/UTF8
    Codec ID/Info : UTF-8 Plain Text
    Duration : 41 min 37 s
    Bit rate : 65 b/s
    Count of elements : 800
    Stream size : 20.1 KiB (0%)
    Title : English
    Language : English
    Default : No
    Forced : No

    Скриншоты для ознакомления



    Все одноименные релизы в Клубе
    Время раздачи: 24/7 (до появления первых 3-5 скачавших)

    Онлайн видео Пожарные Чикаго



    Пожарные Чикаго/Чикаго в Огне/Chicago Fire (2019) WEB-DL [H.264/1080p-LQ] (сезон 8, серии 1-4 из 22) TVShows (обновляемая)
    Рейтинг →
     (голосов: 1, оценка 3/5, голосовать можно 1 раз )

    Другие торренты по теме:

  • Пожарные Чикаго / Чикаго в Огне / Chicago Fire (2014) WEB-DLRip (сезон 3, серии 1 из 22) Шадинский (обновляемая) скачать через торрент бесплатно
  • Пожарные Чикаго / Чикаго в Огне / Chicago Fire (2015) HDTVRip [H.264 / 720p-LQ] (сезон 4, серии 1-1 из 23) Шадинский (Обновляемая) скачать через торрент бесплатно
  • Пожарные Чикаго / Чикаго в Огне / Chicago Fire (2016) WEB-DLRip (сезон 5, серия 1 из 22) Шадинский (обновляемая)
  • Пожарные Чикаго / Чикаго в Огне / Chicago Fire (2016) WEB-DLRip (сезон 5, серии 1-16 из 22) Шадинский (обновляемая)
  • Пожарные Чикаго / Чикаго в Огне / Chicago Fire (2018) WEB-DL [H.264 / 1080p-LQ] (сезон 7, серии 1-9 из 23) TVShows (обновляемая)
  • Пожарные Чикаго / Чикаго в Огне / Chicago Fire (2019) WEB-Rip (сезон 8, серии 1-3 из 22) Шадинский (обновляемая)
  • Пожарные Чикаго / Chicago Fire (2012) BDRip (Сезон 1, серии 1-24 из 24) [SDI Media] скачать через торрент бесплатно
  • Пожарные Чикаго / Chicago Fire (2017) WEB-DL [H.264 / 720p-LQ] (сезон 6, серии 1-23 из 23) Шадинский


    • Комментарии (0):

      Информация

      Информация

        Посетители, находящиеся в группе Гости, не могут оставлять комментарии в данной новости.

        ↓ Меню




        ↓ Опрос

        Вы добавили сайт в закладки?
        Да
        Нет


        Популярное