.
Авторизация | Регистрация

bitok.xyz

» » Касл-Рок / Castle Rock (2019) WEB-DLRip (сезон 2, серии 1 из 10) LostFilm (обновляемая) торрент скачать бесплатно


    Касл-Рок / Castle Rock (2019) WEB-DLRip (сезон 2, серии 1 из 10) LostFilm (обновляемая) торрент скачать бесплатно

    Дата: 27-10-2019, 05:00 | .torrent скачали: 2

    Касл-Рок / Castle Rock (2019) WEB-DLRip (сезон 2, серии 1 из 10) LostFilm (обновляемая)Производство: США/Bad Robot, Warner Bros.
    Жанр: триллер, ужасы, фэнтези, драма, детектив
    Режиссер: Майкл Аппендаль, Грег Яйтанс, Ана Лили Амирпур

    Актеры
    Андре Холланд, Мелани Лински, Билл Скарсгард, Джейн Леви, Сисси Спейсек, Баркхад Абди, Меттью Алан, Лиззи Каплан, Элси Фишер, Тим Роббинс и др.

    Описание

    Второй сезон любимого сериала мистического сериала, снятого по мотивам произведений Стивена Кинга.
    Действие происходит в небольшом вымышленном городе Касл-Рок. В этом таинственном месте происходит масса мистических, а порой и страшных событий.

    Возраст: 18+ (зрителям, достигшим 18 лет)
    Продолжительность: ~00: 50: 00 серия (1-я серия - 01: 00: 16)
    Качество видео: WEB-DLRip
    Перевод: Многоголосый, профессиональный -LostFilm
    Субтитры: русские, английские
    Видео: XviD, 720x360, ~1473 kbps
    Аудио 1: MP3, 2 ch, 128 kbps — русский
    Аудио 2: MP3, 2 ch, 128 kbps — английский
    Общее
    Полное имя : D: Касл-Рок (сезон любимого сериала 2) Castle Rock (2019) WEB-DLRip - LostFilmCastle.Rock.S02E01.WEB-DLRip.Rus.Eng.DV.LostFilm.avi
    Формат : AVI
    Формат/Информация : Audio Video Interleave
    Размер файла : 752 Мбайт
    Продолжительность : 1 ч. 0 м.
    Общий поток : 1743 Кбит/сек
    Название фильма : Castle.Rock.S02E01.WEB-DLRip.Rus.Eng.DV.LostFilm/NNM-Club
    Программа кодирования : VirtualDubModRus 1.5.10.2 (build 2542/release)
    Библиотека кодирования : VirtualDubMod build 2542/release
    Видео
    Идентификатор : 0
    Формат : MPEG-4 Visual
    Профиль формата : Advanced Simple@L5
    Настройки формата : BVOP2
    Параметр BVOP формата : 2
    Параметр QPel формата : Нет
    Параметр GMC формата : Без точки перехода
    Параметр матрицы формата : Default (H.263)
    Идентификатор кодека : XVID
    Идентификатор кодека/Подсказка : XviD
    Продолжительность : 1 ч. 0 м.
    Битрейт : 1473 Кбит/сек
    Ширина : 720 пикселей
    Высота : 360 пикселей
    Соотношение сторон : 2, 000
    Частота кадров : 23, 976 (24000/1001) кадра/сек
    Цветовое пространство : YUV
    Субдискретизация насыщенности : 4: 2: 0
    Битовая глубина : 8 бит
    Тип развёртки : Прогрессивная
    Метод сжатия : С потерями
    Бит/(Пиксели*Кадры) : 0.237
    Размер потока : 635 Мбайт (85%)
    Заголовок : Rip from DriverV for NNM-Club
    Библиотека кодирования : XviD 64
    Аудио #1
    Идентификатор : 1
    Формат : MPEG Audio
    Версия формата : Version 1
    Профиль формата : Layer 3
    Настройки формата : Joint stereo/MS Stereo
    Идентификатор кодека : 55
    Идентификатор кодека/Подсказка : MP3
    Продолжительность : 1 ч. 0 м.
    Вид битрейта : Постоянный
    Битрейт : 128 Кбит/сек
    Каналы : 2 канала
    Частота : 48, 0 КГц
    Метод сжатия : С потерями
    Размер потока : 55, 2 Мбайт (7%)
    Выравнивание : Соединение по промежуткам
    Продолжительность промежутка : 42 мс. (1, 00 видеокадр)
    Время предзагрузки промежутка : 504 мс.
    Аудио #2
    Идентификатор : 2
    Формат : MPEG Audio
    Версия формата : Version 1
    Профиль формата : Layer 3
    Настройки формата : Joint stereo/MS Stereo
    Идентификатор кодека : 55
    Идентификатор кодека/Подсказка : MP3
    Продолжительность : 1 ч. 0 м.
    Вид битрейта : Постоянный
    Битрейт : 128 Кбит/сек
    Каналы : 2 канала
    Частота : 48, 0 КГц
    Метод сжатия : С потерями
    Размер потока : 55, 2 Мбайт (7%)
    Выравнивание : Соединение по промежуткам
    Продолжительность промежутка : 42 мс. (1, 00 видеокадр)
    Время предзагрузки промежутка : 504 мс.


    Онлайн видео Касл-Рок



    Касл-Рок/Castle Rock (2019) WEB-DLRip (сезон 2, серии 1 из 10) LostFilm (обновляемая)
    Рейтинг →
     (голосов: 1, оценка 5/5, голосовать можно 1 раз )

    Другие торренты по теме:

  • Касл-Рок / Castle Rock (2018) WEB-DLRip (сезон 1, серии 1 из 10) LostFilm (обновляемая)
  • Касл-Рок / Castle Rock (2018) WEBRip [H.264 / 1080-LQ] (сезон 1, серии 1-3 из 10) OMSKBIRD (обновляемая) [AD]
  • Касл-Рок / Castle Rock (2018) WEBRip [H.264 / 720-LQ] (сезон 1, серии 1-8 из 10) Baibako (обновляемая)
  • Касл-Рок / Castle Rock (2018) WEB-DL [H.264 / 1080p] (сезон 1, серии 1-10 из 10) LostFilm, AlexFilm
  • Касл-Рок / Castle Rock (2018) WEB-DL [H.264 / 1080p-LQ] (сезон 1, серии 1-10 из 10) TVShows
  • Касл-Рок / Castle Rock (2018) UHD BDRip [H.265 / 2160p] [4K, HDR, 10-bit] (сезон 1, серии 1-10 из 10) LostFilm, NewStudio, AlexFilm, Кубик в кубе


    • Комментарии (0):

      Информация

      Информация

        Посетители, находящиеся в группе Гости, не могут оставлять комментарии в данной новости.

        ↓ Меню




        ↓ Опрос

        Вы добавили сайт в закладки?
        Да
        Нет


        Популярное