.
Авторизация | Регистрация

bitok.xyz

» » Зеровилль / Zeroville (2019) WEB-DL [H.264 / 720p-LQ] торрент скачать бесплатно


    Зеровилль / Zeroville (2019) WEB-DL [H.264 / 720p-LQ] торрент скачать бесплатно

    Дата: 28-10-2019, 05:00 | .torrent скачали: 2

    Зеровилль / Zeroville (2019) WEB-DL [H.264 / 720p-LQ]Производство: США/Patriot Pictures, RabbitBandini Productions
    Жанр: Драма, комедия
    Режиссер: Джеймс Франко
    Продюсер: Кэролайн Арагон, Винс Джоливетт, Майкл Мендельсон

    Актеры
    Джеймс Франко, Сет Роген, Джеки Уивер, Меган Фокс, Джои Кинг, Дэнни Макбрайд, Уилл Феррелл, Дэйв Франко, Крэйг Робинсон, Томас Иэн Николас

    Описание
    Однажды в Голливуд отправляется одержимый кино студент-архитектор с эффектной татуировкой на бритой голове, и попадает в мир кино, секса, наркотиков, рок-н-ролла, упадка больших киностудий и подъема независимых режиссеров.

    Возраст: 18+ Зрителям, достигшим 18 лет
    Рейтинг MPAA: R Лицам до 17 обязательно присутствие взрослых
    Дата мировой премьеры: 13 сентября 2019
    Дата российской премьеры: 19 сентября 2019, Парадиз
    Релиз от: TeamHD
    Продолжительность: 01: 32: 25
    Качество видео: WEB-DL 720p
    Перевод: Дублированный(iTunes)
    Субтитры: Нет
    Видео: AVC/H.264, 960x532, 4047 Kbps, 25.000 fps
    Аудио 1 : AC-3, 6 ch, 384 Kbps | Русский
    General
    Unique ID : 295396218605210034065071445850053771832 (0xDE3B3E068639B4D092082EC52CC58238)
    Complete name : /Volumes/Promise Pegasus/Zeroville.WEB-DL.720p.TeamHD.mkv
    Format : Matroska
    Format version : Version 4
    File size : 2.86 GiB
    Duration : 1h 32mn
    Overall bit rate : 4 433 Kbps
    Movie name : Zeroville WEB-DL 720p TeamHD
    Encoded date : UTC 2019-10-27 14: 12: 10
    Writing application : mkvmerge v37.0.0 (\'Leave It\') 64-bit
    Writing library : libebml v1.3.9 + libmatroska v1.5.2
    Video
    ID : 1
    Format : AVC
    Format/Info : Advanced Video Codec
    Format profile : Main@L3.1
    Format settings : 2 Ref Frames
    Format settings, CABAC : No
    Format settings, ReFrames : 2 frames
    Codec ID : V_MPEG4/ISO/AVC
    Duration : 1h 32mn
    Bit rate : 4 047 Kbps
    Width : 960 pixels
    Height : 532 pixels
    Display aspect ratio : 2.40: 1
    Frame rate mode : Constant
    Frame rate : 25.000 fps
    Color space : YUV
    Chroma subsampling : 4: 2: 0
    Bit depth : 8 bits
    Scan type : Progressive
    Bits/(Pixel*Frame) : 0.317
    Stream size : 2.61 GiB (91%)
    Language : English
    Default : Yes
    Forced : No
    Color range : Limited
    Color primaries : BT.709
    Transfer characteristics : BT.709
    Matrix coefficients : BT.709
    Audio
    ID : 2
    Format : AC-3
    Format/Info : Audio Coding 3
    Commercial name : Dolby Digital
    Codec ID : A_AC3
    Duration : 1h 32mn
    Bit rate mode : Constant
    Bit rate : 384 Kbps
    Channel(s) : 6 channels
    Channel layout : L R C LFE Ls Rs
    Sampling rate : 48.0 KHz
    Frame rate : 31.250 fps (1536 SPF)
    Bit depth : 16 bits
    Compression mode : Lossy
    Stream size : 254 MiB (9%)
    Title : Russian DUB iTunes
    Language : Russian
    Service kind : Complete Main
    Default : Yes
    Forced : No
    Menu
    00: 00: 00.000 : en: Глава 1
    00: 04: 29.040 : en: Глава 2
    00: 10: 54.880 : en: Глава 3
    00: 16: 40.920 : en: Глава 4
    00: 20: 19.560 : en: Глава 5
    00: 26: 48.040 : en: Глава 6
    00: 31: 57.200 : en: Глава 7
    00: 41: 45.200 : en: Глава 8
    00: 46: 38.040 : en: Глава 9
    00: 54: 29.600 : en: Глава 10
    00: 59: 17.280 : en: Глава 11
    01: 05: 03.400 : en: Глава 12
    01: 11: 42.480 : en: Глава 13
    01: 18: 41.240 : en: Глава 14
    01: 24: 38.440 : en: Глава 15

    Скриншоты для ознакомления



    Все одноименные релизы в Клубе
    Время раздачи: 24/7 (круглосуточно) (до появления первых 3-5 скачавших)

    Онлайн видео Зеровилль



    Зеровилль/Zeroville (2019) WEB-DL [H.264/720p-LQ]
    Рейтинг →
     (голосов: 1, оценка 3/5, голосовать можно 1 раз )

    Другие торренты по теме:

  • Зеровилль / Zeroville (2019) WEB-DLRip
  • Зеровилль / Zeroville (2019) WEB-DL [H.264 / 1080p-LQ]
  • Зеровилль / Zeroville (2019) WEB-DLRip [H.265] [10-bit]


    • Комментарии (0):

      Информация

      Информация

        Посетители, находящиеся в группе Гости, не могут оставлять комментарии в данной новости.

        ↓ Меню




        ↓ Опрос

        Вы добавили сайт в закладки?
        Да
        Нет


        Популярное