.
Авторизация | Регистрация

bitok.xyz

» » Брюс / Bruce (2019) WEB-DLRip [H.264 / 720p-LQ] [MVO] [AD] торрент скачать бесплатно


    Брюс / Bruce (2019) WEB-DLRip [H.264 / 720p-LQ] [MVO] [AD] торрент скачать бесплатно

    Дата: 28-10-2019, 05:00 | .torrent скачали: 0

    Брюс / Bruce (2019) WEB-DLRip [H.264 / 720p-LQ] [MVO] [AD]Производство: США/Christopher Bayon Films
    Жанр: Комедия
    Режиссер: Phebe Szatmari

    Актеры
    Christopher Bayon, Энтони Гуерино, Evan Altshuler, Kimberly Apadula, Evgeniy Azov, Веллингтон Барриентос, Wellington Barrientos, Chris Bayon, Joanna Bradley, Lauren Brickman

    Описание

    Картина рассказывает историю художника по имени Брюс, который упорно пытается подавить свой собственный талант. Как-то раз он встретил собственную личность в форме семидесяти килограммового воображаемого друга.

    Дата мировой премьеры: 27 января 2019
    Продолжительность: 01: 09: 33
    Качество видео: WEB-DLRip
    Перевод: Многоголосый закадровый, профессиональный (Синема УС)
    Субтитры: Отсутствуют
    Реклама: Присутствует баннер.
    Видео: AVC/H.264, 1280x720, ~5203 Kbps
    Аудио: AC-3, 2 ch, 384 Kbps
    Общее
    Полное имя : D: NNMБрюсBruce.2019.WEB-DLRip.720p-LQ.mkv
    Формат : Matroska
    Версия формата : Version 2
    Размер файла : 2, 77 Гбайт
    Продолжительность : 1 ч. 9 м.
    Режим общего битрейта : Переменный
    Общий поток : 5700 Кбит/сек
    Программа кодирования : libmatroska 1.4.1
    Библиотека кодирования : SolveigMM Matroska Muxer Version 1.0.1502.31
    Видео
    Идентификатор : 1
    Формат : AVC
    Формат/Информация : Advanced Video Codec
    Профиль формата : High@L4.1
    Настройки формата : CABAC/4 Ref Frames
    Параметр CABAC формата : Да
    Параметр RefFrames формата : 4 кадра
    Идентификатор кодека : V_MPEG4/ISO/AVC
    Продолжительность : 1 ч. 9 м.
    Вид битрейта : Переменный
    Битрейт : 5203 Кбит/сек
    Номинальный битрейт : 6000 Кбит/сек
    Максимальный битрейт : 6000 Кбит/сек
    Ширина : 1280 пикселей
    Высота : 720 пикселей
    Соотношение сторон : 16: 9
    Режим частоты кадров : Постоянный
    Частота кадров : 23, 976 (24000/1001) кадра/сек
    Стандарт вещания : Component
    Цветовое пространство : YUV
    Субдискретизация насыщенности : 4: 2: 0
    Битовая глубина : 8 бит
    Тип развёртки : Прогрессивная
    Бит/(Пиксели*Кадры) : 0.235
    Размер потока : 2, 53 Гбайт (91%)
    Default : Нет
    Forced : Нет
    Цветовой диапазон : Limited
    Основные цвета : BT.709
    Характеристики трансфера : BT.709
    Коэффициенты матрицы : BT.709
    Аудио
    Идентификатор : 2
    Формат : AC-3
    Формат/Информация : Audio Coding 3
    Коммерческое название : Dolby Digital
    Идентификатор кодека : A_AC3
    Продолжительность : 1 ч. 9 м.
    Вид битрейта : Постоянный
    Битрейт : 384 Кбит/сек
    Каналы : 2 канала
    ChannelLayout : L R
    Частота : 48, 0 КГц
    Частота кадров : 31, 250 кадров/сек (1536 SPF)
    Битовая глубина : 16 бит
    Метод сжатия : С потерями
    Размер потока : 191 Мбайт (7%)
    Язык : Russian
    ServiceKind/String : Complete Main
    Default : Нет
    Forced : Нет

    Скриншоты для ознакомления



    Все одноименные релизы в Клубе Время раздачи: 24/7 (до появления первых 3-5 скачавших)

    Онлайн видео Брюс



    Брюс/Bruce (2019) WEB-DLRip [H.264/720p-LQ] [MVO] [AD]
    Рейтинг →
     (голосов: 1, оценка 5/5, голосовать можно 1 раз )

    Другие торренты по теме:

  • Bruce Eckel / Брюс Эккель | Thinking in Java (4th Edition) / Мышление в Java (4е издание) (2006) [PDF, FB2, DJVU, EPUB, TXT] [En] скачать через торрент бесплатно
  • Я – Брюс Ли / I Am Bruce Lee (2012) HDTV [H.264 / 1080i-LQ] скачать через торрент бесплатно
  • Брюс Ли - Боец / Bruce Lee - The Fighter WEB-DLRip (2015) [H.264 / 1080p-LQ]
  • Брюс Ли - Боец / Bruce Lee - The Fighter WEB-DLRip (2015) [H.264 / 1080p-LQ] [TEL / RU Sub]
  • Брюс Ли: Коллекция / Bruce Lee Ultimate Collection (1971-1978) BDRip [H.264 / 1080p]
  • Брюс Ли: Коллекция легендарных фильмов / Bruce Lee Series Legendary Collection (1971-1978) HDRip [H.264] Superbit [MP4|1024x436]
  • Брюс Всемогущий / Bruce Almighty (2003) BDRip [H.264 / 1080p]
  • Брюс Ли: Путь Воина / Bruce Lee: A Warriors Journey (2000) DVDRip


    • Комментарии (0):

      Информация

      Информация

        Посетители, находящиеся в группе Гости, не могут оставлять комментарии в данной новости.

        ↓ Меню




        ↓ Опрос

        Вы добавили сайт в закладки?
        Да
        Нет


        Популярное