.
Авторизация | Регистрация

bitok.xyz

» » Страшные истории для рассказа в темноте / Scary Stories to Tell in the Dark (2019) BDRemux [H.264 / 1080p] торрент скачать бесплатно


    Страшные истории для рассказа в темноте / Scary Stories to Tell in the Dark (2019) BDRemux [H.264 / 1080p] торрент скачать бесплатно

    Дата: 28-10-2019, 05:00 | .torrent скачали: 0

    Страшные истории для рассказа в темноте / Scary Stories to Tell in the Dark (2019) BDRemux [H.264 / 1080p]Производство: США, Канада, Китай/1212 Entertainment, CBS Films
    Жанр: Ужасы, Триллер
    Режиссер: Андре Овредал

    Актеры
    Зои Маргарет Коллетти, Майкл Гарза, Гэбриел Раш, Остин Абрамс, Дин Норрис, Джил Беллоуз, Лоррейн Туссен, Остин Зажур, Натали Гэнзхорн, Кэтлин Поллард

    Описание

    Хэллоуин 1968 года. Старшеклассница Стелла, большая любительница страшных историй, и двое её друзей наряжаются в нелепые костюмы и идут гулять. Так получается, что ребята выводят из себя школьного задиру и хулигана Томми и, спасаясь от него, знакомятся с неместным парнем Рамоном, а после отправляются в старинный заброшенный особняк. Дом принадлежал семье Бэллоуз, все члены которой загадочно исчезли почти 100 лет назад, а про дочь семейства Сару до сих пор ходят жуткие легенды — якобы она может убивать, рассказывая истории. Друзья находят потайную комнату, и Стелла забирает домой книгу, где Сара писала свои рассказы, и на страницах которой этим же вечером появится новый, а хулиган Томми исчезнет без следа.

    Возраст: 16+ (зрителям, достигшим 16 лет)
    Рейтинг MPAA: PG-13 (детям до 13 лет просмотр нежелателен)
    Дата мировой премьеры: 7 августа 2019
    Дата российской премьеры: 8 августа 2019, Парадиз
    Релиз от: selezen
    Продолжительность: 01: 47: 57
    Качество видео: BDRemux
    Перевод: Дублированный
    Субтитры: Английские
    Видео: AVC/H.264, 1920x1080, ~35, 1 Mbps
    Аудио 1: AC3, 6 ch, 384 Kbps - Русский (DUB, iTunes)
    Аудио 2: TrueHD, 6 ch, 1713 Kbps - Английский
    Аудио 3: AC3, 6 ch, 640 Kbps - Английский
    General
    Unique ID : 166395638574056308622453195138895080972 (0x7D2EA261203019094C70F449593E6E0C)
    Complete name : D: Video111Scary.Stories.to.Tell.in.the.Dark.2019.BDREMUX.1080p.seleZen.mkv
    Format : Matroska
    Format version : Version 4
    File size : 28.6 GiB
    Duration : 1 h 47 min
    Overall bit rate mode : Variable
    Overall bit rate : 37.9 Mb/s
    Movie name : Scary Stories to Tell in the Dark 2019 from селезень
    Encoded date : UTC 2019-10-27 06: 59: 42
    Writing application : mkvmerge v22.0.0 (\'At The End Of The World\') 64-bit
    Writing library : libebml v1.3.5 + libmatroska v1.4.8
    Video
    ID : 1
    Format : AVC
    Format/Info : Advanced Video Codec
    Format profile : High@L4.1
    Format settings : CABAC/4 Ref Frames
    Format settings, CABAC : Yes
    Format settings, Reference : 4 frames
    Codec ID : V_MPEG4/ISO/AVC
    Duration : 1 h 47 min
    Bit rate mode : Variable
    Bit rate : 35.1 Mb/s
    Maximum bit rate : 37.0 Mb/s
    Width : 1 920 pixels
    Height : 1 080 pixels
    Display aspect ratio : 16: 9
    Frame rate mode : Constant
    Frame rate : 23.976 (24000/1001) FPS
    Color space : YUV
    Chroma subsampling : 4: 2: 0
    Bit depth : 8 bits
    Scan type : Progressive
    Bits/(Pixel*Frame) : 0.707
    Stream size : 26.5 GiB (93%)
    Language : English
    Default : Yes
    Forced : No
    Audio #1
    ID : 2
    Format : AC-3
    Format/Info : Audio Coding 3
    Commercial name : Dolby Digital
    Codec ID : A_AC3
    Duration : 1 h 47 min
    Bit rate mode : Constant
    Bit rate : 384 kb/s
    Channel(s) : 6 channels
    Channel layout : L R C LFE Ls Rs
    Sampling rate : 48.0 kHz
    Frame rate : 31.250 FPS (1536 SPF)
    Bit depth : 16 bits
    Compression mode : Lossy
    Stream size : 297 MiB (1%)
    Title : iTunes
    Language : Russian
    Service kind : Complete Main
    Default : Yes
    Forced : Yes
    Audio #2
    ID : 3
    Format : MLP FBA
    Format/Info : Meridian Lossless Packing FBA
    Commercial name : Dolby TrueHD
    Codec ID : A_TRUEHD
    Duration : 1 h 47 min
    Bit rate mode : Variable
    Bit rate : 1 713 kb/s
    Maximum bit rate : 2 733 kb/s
    Channel(s) : 6 channels
    Channel layout : L R C LFE Ls Rs
    Sampling rate : 48.0 kHz
    Frame rate : 1 200.000 FPS (40 SPF)
    Compression mode : Lossless
    Stream size : 1.29 GiB (5%)
    Title : Original
    Language : English
    Default : No
    Forced : No
    Audio #3
    ID : 4
    Format : AC-3
    Format/Info : Audio Coding 3
    Commercial name : Dolby Digital
    Codec ID : A_AC3
    Duration : 1 h 47 min
    Bit rate mode : Constant
    Bit rate : 640 kb/s
    Channel(s) : 6 channels
    Channel layout : L R C LFE Ls Rs
    Sampling rate : 48.0 kHz
    Frame rate : 31.250 FPS (1536 SPF)
    Bit depth : 16 bits
    Compression mode : Lossy
    Stream size : 494 MiB (2%)
    Language : English
    Service kind : Complete Main
    Default : No
    Forced : No
    Text
    ID : 5
    Format : UTF-8
    Codec ID : S_TEXT/UTF8
    Codec ID/Info : UTF-8 Plain Text
    Duration : 1 h 39 min
    Bit rate : 45 b/s
    Count of elements : 1244
    Stream size : 32.8 KiB (0%)
    Title : Full
    Language : English
    Default : No
    Forced : No
    Menu
    00: 00: 00.000 : en: Chapter 1
    00: 05: 44.385 : en: Chapter 2
    00: 13: 23.052 : en: Chapter 3
    00: 18: 52.130 : en: Chapter 4
    00: 25: 34.741 : en: Chapter 5
    00: 28: 31.167 : en: Chapter 6
    00: 36: 17.300 : en: Chapter 7
    00: 47: 06.281 : en: Chapter 8
    00: 54: 17.170 : en: Chapter 9
    00: 58: 36.304 : en: Chapter 10
    01: 02: 36.377 : en: Chapter 11
    01: 11: 04.676 : en: Chapter 12
    01: 17: 59.424 : en: Chapter 13
    01: 24: 33.902 : en: Chapter 14
    01: 29: 53.179 : en: Chapter 15
    01: 38: 30.279 : en: Chapter 16

    Скриншоты для ознакомления



    Все одноименные релизы в Клубе
    Время раздачи: Мультитрекер (до появления первых 3-5 скачавших)

    Онлайн видео Страшные истории для рассказа в темноте



    Страшные истории для рассказа в темноте/Scary Stories to Tell in the Dark (2019) BDRemux [H.264/1080p]
    Рейтинг →
     (голосов: 1, оценка 3/5, голосовать можно 1 раз )

    Другие торренты по теме:

  • Страшные истории v3.4.2 Mod [Ru]
  • Страшные истории для рассказа в темноте / Scary Stories to Tell in the Dark (2019) WEB-DL [H.264 / 1080p-LQ]
  • Страшные истории для рассказа в темноте / Scary Stories to Tell in the Dark (2019) WEB-DLRip
  • Страшные истории для рассказа в темноте / Scary Stories to Tell in the Dark (2019) WEB-DLRip [H.264]
  • Элвин Шварц | Страшные истории для рассказа в темноте [сборник] (2019) [FB2]
  • Страшные истории для рассказа в темноте / Scary Stories to Tell in the Dark (2019) WEB-DLRip [H.265] [10-bit] [PR]
  • Страшные истории для рассказа в темноте / Scary Stories to Tell in the Dark (2019) HDRip
  • Страшные истории для рассказа в темноте / Scary Stories to Tell in the Dark (2019) BDRip [H.264 / 1080p] [PR]


    • Комментарии (0):

      Информация

      Информация

        Посетители, находящиеся в группе Гости, не могут оставлять комментарии в данной новости.

        ↓ Меню




        ↓ Опрос

        Вы добавили сайт в закладки?
        Да
        Нет


        Популярное