.
Авторизация | Регистрация

bitok.xyz

» » Сверх(НЕ)естественное / Extra Ordinary (2019) BDRip [H.264 / 1080p] торрент скачать бесплатно


    Сверх(НЕ)естественное / Extra Ordinary (2019) BDRip [H.264 / 1080p] торрент скачать бесплатно

    Дата: 28-10-2019, 05:00 | .torrent скачали: 0

    Сверх(НЕ)естественное / Extra Ordinary (2019) BDRip [H.264 / 1080p]Производство: Ирландия, Бельгия, Blinder Films, Epic Pictures Group
    Жанр: Комедия, ужасы, фэнтези
    Режиссер: Майк Ахерн, Энда Логман

    Актеры
    Маив Хиггинс, Бэрри Уорд, Уилл Форте, Клаудия О`Доэрти, Джэми Бимиш, Terri Chandler, Ристерд Купер, Emma Coleman, Кэрри Краули, Мэри МакЭвой

    Описание

    Скромная Роуз обладает экстрасенсорными способностями, но соседи достают ее лишь просьбами изгнать духов надоедливых родственников. Однажды в ее родном городке объявляется рок-звезда Кристиан Уинтер. Наделенный дьявольской силой, он околдовывает местную девушку, и ее отец в отчаянии просит Роуз о помощи. У героини появляется шанс раскрыть свой дар, а заодно устроить личную жизнь.

    Возраст: 18+ (зрителям, достигшим 18 лет. запрещено для детей)
    Рейтинг MPAA: R (лицам до 17 лет обязательно присутствие взрослого)
    Дата мировой премьеры: 10 марта 2019
    Дата российской премьеры: 18 октября 2019, Вольга
    Релиз от: Селезень
    Продолжительность: 01: 34: 20
    Качество видео: BDRip
    Перевод: Дублированный (iTunes )
    Субтитры: Русские
    Видео: AVC/H.264, 1920x800, ~10, 5 Mbps
    Аудио #1: AC3, 6 ch, 384 Kbps | Русский (DUB)
    Аудио #2: AC3, 6 ch, 640 Kbps | Английский
    General
    Unique ID : 248023149297439299244161080454962822853 (0xBA97856120F2E009F42E500E11813EC5)
    Complete name : D: Video111Extra.Ordinary.2019.BDRip.1080p.seleZen.mkv
    Format : Matroska
    Format version : Version 4
    File size : 7.59 GiB
    Duration : 1 h 34 min
    Overall bit rate : 11.5 Mb/s
    Movie name : Extra Ordinary 2019 from селезень
    Encoded date : UTC 2019-10-26 13: 57: 55
    Writing application : mkvmerge v22.0.0 (\'At The End Of The World\') 64-bit
    Writing library : libebml v1.3.5 + libmatroska v1.4.8
    Video
    ID : 1
    Format : AVC
    Format/Info : Advanced Video Codec
    Format profile : High@L4.1
    Format settings : CABAC/5 Ref Frames
    Format settings, CABAC : Yes
    Format settings, Reference : 5 frames
    Codec ID : V_MPEG4/ISO/AVC
    Duration : 1 h 34 min
    Bit rate : 10.5 Mb/s
    Width : 1 920 pixels
    Height : 800 pixels
    Display aspect ratio : 2.40: 1
    Frame rate mode : Constant
    Frame rate : 24.000 FPS
    Color space : YUV
    Chroma subsampling : 4: 2: 0
    Bit depth : 8 bits
    Scan type : Progressive
    Bits/(Pixel*Frame) : 0.285
    Stream size : 6.92 GiB (91%)
    Title : Encoded by seleZen
    Writing library : x264 core 148 r2705kMod 3f5ed56
    Encoding settings : cabac=1/ref=5/deblock=1: -2: -2/analyse=0x3: 0x113/me=umh/subme=11/psy=1/fade_compensate=0.00/psy_rd=1.00: 0.00/mixed_ref=1/me_range=32/chroma_me=1/trellis=2/8x8dct=1/cqm=0/deadzone=21, 11/fast_pskip=0/chroma_qp_offset=-2/threads=24/lookahead_threads=6/sliced_threads=0/nr=0/decimate=0/interlaced=0/bluray_compat=0/constrained_intra=0/fgo=0/bframes=10/b_pyramid=2/b_adapt=2/b_bias=0/direct=3/weightb=1/open_gop=0/weightp=2/keyint=240/keyint_min=24/scenecut=40/intra_refresh=0/rc_lookahead=50/rc=2pass/mbtree=0/bitrate=10500/ratetol=1.0/qcomp=0.60/qpmin=0/qpmax=51/qpstep=4/cplxblur=20.0/qblur=0.5/vbv_maxrate=50000/vbv_bufsize=62500/nal_hrd=none/filler=0/ip_ratio=1.40/pb_ratio=1.30/aq=3: 0.80
    Language : English
    Default : Yes
    Forced : No
    Audio #1
    ID : 2
    Format : AC-3
    Format/Info : Audio Coding 3
    Commercial name : Dolby Digital
    Codec ID : A_AC3
    Duration : 1 h 34 min
    Bit rate mode : Constant
    Bit rate : 384 kb/s
    Channel(s) : 6 channels
    Channel layout : L R C LFE Ls Rs
    Sampling rate : 48.0 kHz
    Frame rate : 31.250 FPS (1536 SPF)
    Bit depth : 16 bits
    Compression mode : Lossy
    Stream size : 259 MiB (3%)
    Title : iTunes
    Language : Russian
    Service kind : Complete Main
    Default : Yes
    Forced : Yes
    Audio #2
    ID : 3
    Format : AC-3
    Format/Info : Audio Coding 3
    Commercial name : Dolby Digital
    Codec ID : A_AC3
    Duration : 1 h 34 min
    Bit rate mode : Constant
    Bit rate : 640 kb/s
    Channel(s) : 6 channels
    Channel layout : L R C LFE Ls Rs
    Sampling rate : 48.0 kHz
    Frame rate : 31.250 FPS (1536 SPF)
    Bit depth : 16 bits
    Compression mode : Lossy
    Stream size : 432 MiB (6%)
    Title : Original
    Language : English
    Service kind : Complete Main
    Default : No
    Forced : No
    Text
    ID : 4
    Format : UTF-8
    Codec ID : S_TEXT/UTF8
    Codec ID/Info : UTF-8 Plain Text
    Duration : 1 h 29 min
    Bit rate : 118 b/s
    Count of elements : 1207
    Stream size : 77.3 KiB (0%)
    Title : Full
    Language : Russian
    Default : No
    Forced : No
    Menu
    00: 00: 00.000 : de: 00: 00: 00.000
    00: 10: 08.542 : de: 00: 10: 08.542
    00: 20: 12.667 : de: 00: 20: 12.667
    00: 28: 46.500 : de: 00: 28: 46.500
    00: 36: 38.958 : de: 00: 36: 38.958
    00: 46: 45.250 : de: 00: 46: 45.250
    00: 57: 59.292 : de: 00: 57: 59.292
    01: 06: 36.542 : de: 01: 06: 36.542
    01: 17: 14.750 : de: 01: 17: 14.750
    01: 28: 53.458 : de: 01: 28: 53.458

    Скриншоты для ознакомления



    Все одноименные релизы в Клубе
    Время раздачи: 24/7 (до появления первых 3-5 скачавших)

    Онлайн видео Сверх(НЕ)естественное



    Сверх(НЕ)естественное/Extra Ordinary (2019) BDRip [H.264/1080p]
    Рейтинг →
     (голосов: 1, оценка 4/5, голосовать можно 1 раз )

    Другие торренты по теме:

  • Сверх(НЕ)естественное / Extra Ordinary (2019) WEB-DL [H.264 / 1080p-LQ]
  • Сверх(НЕ)естественное / Extra Ordinary (2019) WEB-DLRip
  • Сверх(НЕ)естественное / Extra Ordinary (2019) BDRip [H.265 / 1080p] [10-bit] [PR]
  • Сверх(НЕ)естественное / Extra Ordinary (2019) BDRip [H.265 / 720p] [PR]
  • Сверх(НЕ)естественное / Extra Ordinary (2019) BDRip [H.265] [10-bit]
  • Сверх(НЕ)естественное / Extra Ordinary (2019) BDRemux [H.264 / 1080p]


    • Комментарии (0):

      Информация

      Информация

        Посетители, находящиеся в группе Гости, не могут оставлять комментарии в данной новости.

        ↓ Меню




        ↓ Опрос

        Вы добавили сайт в закладки?
        Да
        Нет


        Популярное