.
Авторизация | Регистрация

bitok.xyz

» » Гремучая змея / Rattlesnake (2019) WEB-DLRip [MVO] [AD] торрент скачать бесплатно


    Гремучая змея / Rattlesnake (2019) WEB-DLRip [MVO] [AD] торрент скачать бесплатно

    Дата: 28-10-2019, 05:00 | .torrent скачали: 0

    Гремучая змея / Rattlesnake (2019) WEB-DLRip [MVO] [AD]Производство: США/Campfire, Netflix
    Жанр: Триллер, детектив, фэнтези
    Режиссер: Зак Хилдитч

    Актеры
    Кармен Эджого, Тео Росси, Эмма Гринвелл, Ричард Липперт, Арианна Ортиз, Джой Джейкобсон, Дэвид Йоу, Дебрианна Мансини, Эмили Пек, Катрин Хоун

    Описание

    Во время поездки через страну дочь Катрины кусает гремучая змея. Катрина обращается за помощью к обитательнице странного домика, стоящего посреди пустыни. Та соглашается помочь и спасает девочку. Вскоре Катрина получает счёт: в обмен на жизнь дочери она должна убить другого человека.

    Дата мировой премьеры: 25 октября 2019
    Продолжительность: 01: 25: 21
    Качество видео: WEB-DLRip
    Перевод: Многоголосый закадровый, профессиональный (Синема УС)
    Субтитры: Отсутствуют
    Реклама: Присутствует баннер.
    Видео: XviD, 720x304, ~1854 Kbps
    Аудио: AC-3, 2 ch, 384 Kbps
    Общее
    Полное имя : D: NNMГремучая змеяRattlesnake.2019.WEB-DLRip.avi
    Формат : AVI
    Формат/Информация : Audio Video Interleave
    Профиль формата : OpenDML
    Размер файла : 1, 34 Гбайт
    Продолжительность : 1 ч. 25 м.
    Общий поток : 2251 Кбит/сек
    Видео
    Идентификатор : 0
    Формат : MPEG-4 Visual
    Профиль формата : Advanced Simple@L5
    Параметр BVOP формата : 2
    Параметр QPel формата : Нет
    Параметр GMC формата : Без точки перехода
    Параметр матрицы формата : Default (H.263)
    Идентификатор кодека : XVID
    Идентификатор кодека/Подсказка : XviD
    Продолжительность : 1 ч. 25 м.
    Битрейт : 1854 Кбит/сек
    Ширина : 720 пикселей
    Высота : 304 пикселя
    Соотношение сторон : 2, 35: 1
    Частота кадров : 23, 976 (24000/1001) кадра/сек
    Частота кадров в оригинале : 0, 877 кадр/сек
    Цветовое пространство : YUV
    Субдискретизация насыщенности : 4: 2: 0
    Битовая глубина : 8 бит
    Тип развёртки : Прогрессивная
    Метод сжатия : С потерями
    Бит/(Пиксели*Кадры) : 0.353
    Размер потока : 1, 11 Гбайт (82%)
    Библиотека кодирования : XviD 1.2.1 (UTC 2008-12-04)
    Аудио
    Идентификатор : 1
    Формат : AC-3
    Формат/Информация : Audio Coding 3
    Коммерческое название : Dolby Digital
    Идентификатор кодека : 2000
    Продолжительность : 1 ч. 25 м.
    Вид битрейта : Постоянный
    Битрейт : 384 Кбит/сек
    Каналы : 2 канала
    ChannelLayout : L R
    Частота : 48, 0 КГц
    Частота кадров : 31, 250 кадров/сек (1536 SPF)
    Битовая глубина : 16 бит
    Метод сжатия : С потерями
    Размер потока : 234 Мбайт (17%)
    Выравнивание : Соединение по промежуткам
    Продолжительность промежутка : 32 мс. (0, 77 видеокадр)
    ServiceKind/String : Complete Main

    Скриншоты для ознакомления



    Все одноименные релизы в Клубе Время раздачи: 24/7 (до появления первых 3-5 скачавших)

    Онлайн видео Гремучая змея



    Гремучая змея/Rattlesnake (2019) WEB-DLRip [MVO] [AD]
    Рейтинг →
     (голосов: 1, оценка 5/5, голосовать можно 1 раз )

    Другие торренты по теме:

  • Гремучая змея / Rattlesnake (2019) WEB-DLRip [H.264 / 720p-LQ] [MVO] [AD]
  • Гремучая змея / Rattlesnake (2019) WEBRip [H.265] [10-bit] [DVO]
  • Гремучая змея / Rattlesnake (2019) WEBRip [H.264 / 1080p-LQ] [DVO]


    • Комментарии (0):

      Информация

      Информация

        Посетители, находящиеся в группе Гости, не могут оставлять комментарии в данной новости.

        ↓ Меню




        ↓ Опрос

        Вы добавили сайт в закладки?
        Да
        Нет


        Популярное