.
Авторизация | Регистрация

bitok.xyz

» » Гремучая змея / Rattlesnake (2019) WEB-DLRip [H.264 / 720p-LQ] [MVO] [AD] торрент скачать бесплатно


    Гремучая змея / Rattlesnake (2019) WEB-DLRip [H.264 / 720p-LQ] [MVO] [AD] торрент скачать бесплатно

    Дата: 28-10-2019, 05:00 | .torrent скачали: 0

    Гремучая змея / Rattlesnake (2019) WEB-DLRip [H.264 / 720p-LQ] [MVO] [AD]Производство: США/Campfire, Netflix
    Жанр: Триллер, детектив, фэнтези
    Режиссер: Зак Хилдитч

    Актеры
    Кармен Эджого, Тео Росси, Эмма Гринвелл, Ричард Липперт, Арианна Ортиз, Джой Джейкобсон, Дэвид Йоу, Дебрианна Мансини, Эмили Пек, Катрин Хоун

    Описание

    Во время поездки через страну дочь Катрины кусает гремучая змея. Катрина обращается за помощью к обитательнице странного домика, стоящего посреди пустыни. Та соглашается помочь и спасает девочку. Вскоре Катрина получает счёт: в обмен на жизнь дочери она должна убить другого человека.

    Дата мировой премьеры: 25 октября 2019
    Продолжительность: 01: 25: 21
    Качество видео: WEB-DLRip
    Перевод: Многоголосый закадровый, профессиональный (Синема УС)
    Субтитры: Отсутствуют
    Реклама: Присутствует баннер.
    Видео: AVC/H.264, 1280x536, ~5070 Kbps
    Аудио: AC-3, 2 ch, 384 Kbps
    Общее
    Полное имя : D: NNMГремучая змеяRattlesnake.2019.WEB-DLRip.720p-LQ.mkv
    Формат : Matroska
    Версия формата : Version 2
    Размер файла : 3, 32 Гбайт
    Продолжительность : 1 ч. 25 м.
    Режим общего битрейта : Постоянный
    Общий поток : 5565 Кбит/сек
    Программа кодирования : libmatroska 1.4.1
    Библиотека кодирования : SolveigMM Matroska Muxer Version 1.0.1502.31
    Видео
    Идентификатор : 1
    Формат : AVC
    Формат/Информация : Advanced Video Codec
    Профиль формата : High@L4.1
    Настройки формата : CABAC/4 Ref Frames
    Параметр CABAC формата : Да
    Параметр RefFrames формата : 4 кадра
    Идентификатор кодека : V_MPEG4/ISO/AVC
    Продолжительность : 1 ч. 25 м.
    Вид битрейта : Постоянный
    Битрейт : 5070 Кбит/сек
    Номинальный битрейт : 6000 Кбит/сек/6000 Кбит/сек
    Ширина : 1280 пикселей
    Высота : 536 пикселей
    Соотношение сторон : 2, 40: 1
    Режим частоты кадров : Постоянный
    Частота кадров : 23, 976 (24000/1001) кадра/сек
    Стандарт вещания : Component
    Цветовое пространство : YUV
    Субдискретизация насыщенности : 4: 2: 0
    Битовая глубина : 8 бит
    Тип развёртки : Прогрессивная
    Бит/(Пиксели*Кадры) : 0.308
    Размер потока : 3, 02 Гбайт (91%)
    Default : Нет
    Forced : Нет
    Цветовой диапазон : Limited
    Основные цвета : BT.709
    Характеристики трансфера : BT.709
    Коэффициенты матрицы : BT.709
    Аудио
    Идентификатор : 2
    Формат : AC-3
    Формат/Информация : Audio Coding 3
    Коммерческое название : Dolby Digital
    Идентификатор кодека : A_AC3
    Продолжительность : 1 ч. 25 м.
    Вид битрейта : Постоянный
    Битрейт : 384 Кбит/сек
    Каналы : 2 канала
    ChannelLayout : L R
    Частота : 48, 0 КГц
    Частота кадров : 31, 250 кадров/сек (1536 SPF)
    Битовая глубина : 16 бит
    Метод сжатия : С потерями
    Размер потока : 234 Мбайт (7%)
    Язык : Russian
    ServiceKind/String : Complete Main
    Default : Нет
    Forced : Нет

    Скриншоты для ознакомления



    Все одноименные релизы в Клубе Время раздачи: 24/7 (до появления первых 3-5 скачавших)

    Онлайн видео Гремучая змея



    Гремучая змея/Rattlesnake (2019) WEB-DLRip [H.264/720p-LQ] [MVO] [AD]
    Рейтинг →
     (голосов: 1, оценка 3/5, голосовать можно 1 раз )

    Другие торренты по теме:

  • Гремучая змея / Rattlesnake (2019) WEB-DLRip [MVO] [AD]
  • Гремучая змея / Rattlesnake (2019) WEBRip [H.265] [10-bit] [DVO]
  • Гремучая змея / Rattlesnake (2019) WEBRip [H.264 / 1080p-LQ] [DVO]


    • Комментарии (0):

      Информация

      Информация

        Посетители, находящиеся в группе Гости, не могут оставлять комментарии в данной новости.

        ↓ Меню




        ↓ Опрос

        Вы добавили сайт в закладки?
        Да
        Нет


        Популярное