.
Авторизация | Регистрация

bitok.xyz

» » Легенда пустыни Гоби / The Legend of Gobi (2019) DVDRip [MVO] [AD] торрент скачать бесплатно


    Легенда пустыни Гоби / The Legend of Gobi (2019) DVDRip [MVO] [AD] торрент скачать бесплатно

    Дата: 28-10-2019, 05:00 | .torrent скачали: 3

    Легенда пустыни Гоби / The Legend of Gobi (2019) DVDRip [MVO] [AD]Производство: Монголия/UBS TV
    Жанр: Боевик
    Режиссер: Davaajargal Tserenchimed

    Актеры
    Эдуард Ондар, Самданы Лхагвасурен, Zamilan Bolor-Erdene, Одонгаваагийн Амгаланбаатар, Чимэдийн Очгэрэл

    Описание

    В ханстве, где веками царил мир и отовсюду раздавалась музыка, настали смутные времена. К власти пришёл новый хан, запретивший веселье и песни, за что в итоге был проклят. Сможет ли великий хан снять страшное проклятье?

    Дата мировой премьеры: 2 сентября 2019
    Продолжительность: 01: 54: 13
    Качество видео: DVDRip
    Перевод: Многоголосый закадровый, профессиональный (Синема УС)
    Субтитры: Отсутствуют
    Реклама: Присутствует баннер.
    Видео: XviD, 720x288, ~1308 Kbps
    Аудио: AC-3, 2 ch, 384 Kbps
    Общее
    Полное имя : D: NNMЛегенда пустыни ГобиThe.Legend.of.Gobi.2019.DVDRip.avi
    Формат : AVI
    Формат/Информация : Audio Video Interleave
    Профиль формата : OpenDML
    Размер файла : 1, 36 Гбайт
    Продолжительность : 1 ч. 54 м.
    Общий поток : 1705 Кбит/сек
    Видео
    Идентификатор : 0
    Формат : MPEG-4 Visual
    Профиль формата : Advanced Simple@L5
    Настройки формата : BVOP2/Custom Matrix
    Параметр BVOP формата : 2
    Параметр QPel формата : Нет
    Параметр GMC формата : Без точки перехода
    Параметр матрицы формата : Выборочная
    Идентификатор кодека : XVID
    Идентификатор кодека/Подсказка : XviD
    Продолжительность : 1 ч. 54 м.
    Битрейт : 1308 Кбит/сек
    Ширина : 720 пикселей
    Высота : 288 пикселей
    Соотношение сторон : 2, 500
    Частота кадров : 23, 976 (24000/1001) кадра/сек
    Цветовое пространство : YUV
    Субдискретизация насыщенности : 4: 2: 0
    Битовая глубина : 8 бит
    Тип развёртки : Прогрессивная
    Метод сжатия : С потерями
    Бит/(Пиксели*Кадры) : 0.263
    Размер потока : 1, 04 Гбайт (77%)
    Библиотека кодирования : XviD 1.2.1 (UTC 2008-12-04)
    Аудио
    Идентификатор : 1
    Формат : AC-3
    Формат/Информация : Audio Coding 3
    Коммерческое название : Dolby Digital
    Идентификатор кодека : 2000
    Продолжительность : 1 ч. 54 м.
    Вид битрейта : Постоянный
    Битрейт : 384 Кбит/сек
    Каналы : 2 канала
    ChannelLayout : L R
    Частота : 48, 0 КГц
    Частота кадров : 31, 250 кадров/сек (1536 SPF)
    Битовая глубина : 16 бит
    Метод сжатия : С потерями
    Размер потока : 314 Мбайт (23%)
    Выравнивание : Соединение по промежуткам
    Продолжительность промежутка : 32 мс. (0, 77 видеокадр)
    ServiceKind/String : Complete Main

    Скриншоты для ознакомления



    Все одноименные релизы в Клубе Время раздачи: 24/7 (до появления первых 3-5 скачавших)

    Онлайн видео Легенда пустыни Гоби



    Легенда пустыни Гоби/The Legend of Gobi (2019) DVDRip [MVO] [AD]
    Рейтинг →
     (голосов: 1, оценка 4/5, голосовать можно 1 раз )

    Другие торренты по теме:

  • Легенда - Миллениум (2008) [MP3|320 kbps]<Rock> скачать через торрент бесплатно
  • Книжная серия | Легенда мирового детектива [11 книг] (2013-2014) [FB2] скачать через торрент бесплатно
  • Аватар легенда о Корре / Legend of Korra Book 4 (2013) WEB-DL [H.264 / 1080p-LQ] (Сезон 4, Серии 1 из 13) (Обновляемая) скачать через торрент бесплатно
  • Легенда о МорДу / The Legend of Mordu (2012) BDRemux [1080p] скачать через торрент бесплатно
  • Легенда о Каспаре Хаузере / La leggenda di Kaspar Hauser (2012) HDRip [VO] скачать через торрент бесплатно
  • Аватар легенда о Корре / Legend of Korra Book 1 (2012) BDRip [1080p] (Сезон 1, серии 1-2 из 12) [ Обновляемая] (Flux Team)
  • Легенда о Тиле (4 серии из 4) (1976) DVDRip [H.264]
  • Аватар легенда о Корре. Книга2 - Духи. / Legend of Korra Book 2 (2013) WEB-DL [H.264 / 1080p-LQ] (Сезон 2, Серии 14 из 14)


    • Комментарии (0):

      Информация

      Информация

        Посетители, находящиеся в группе Гости, не могут оставлять комментарии в данной новости.

        ↓ Меню




        ↓ Опрос

        Вы добавили сайт в закладки?
        Да
        Нет


        Популярное