.
Авторизация | Регистрация

bitok.xyz

» » Оборотень / Wilkolak (2018) WEB-DLRip [VO] торрент скачать бесплатно


    Оборотень / Wilkolak (2018) WEB-DLRip [VO] торрент скачать бесплатно

    Дата: 28-10-2019, 05:00 | .torrent скачали: 0

    Оборотень / Wilkolak (2018) WEB-DLRip [VO]Производство: Польша, Нидерланды, Германия/Balapolis, Telewizja Polska (TVP), Rosco Polska
    Жанр: Ужасы, драма
    Режиссер: Адриан Панек

    Актеры
    Kamil Polnisiak, Николас Пшигода, Соня Метелица, Данута Стенка, Вернер Даен, Jakub Syska, Helena Mazur, Krzysztof Durski, Maksymilian Balcerowski, Julia Slusarczyk

    Описание

    Вторая мировая война закончилась. Для восьмерых детей, освобождённых из лагеря Гросс-Розен, в лесу был создан временный детский дом в заброшенном дворце. Их опекуном становится двадцатилетняя Ханка, тоже бывшая узница. После ужасов лагеря герои медленно восстанавливают остатки потерянного детства, но скоро кошмар к ним возвращается. В окрестных лесах рыскают лагерные волкодавы. Выпущенные эсэсовцами перед освобождением Гросс-Розена, голодные и одичавшие животные окружают дворец в поисках пищи. В испуганных детях просыпается лагерный инстинкт выживания.

    Дата мировой премьеры: 19 сентября 2018
    Продолжительность: 01: 24: 24
    Качество видео: WEB-DLRip
    Перевод: Любительский одноголосый (den904)
    Субтитры: Русские (Full) отдельно
    Видео: XviD, 720x304, ~1796 Kbps
    Аудио #1: AC3, 2 ch, 256 Kbps - Русский
    Аудио #2: AC3, 2 ch, 256 Kbps - Польский
    Общее
    Полное имя : D: NNMОборотеньWilkolak (2018)Wilkolak (2018).avi
    Формат : AVI
    Формат/Информация : Audio Video Interleave
    Профиль формата : OpenDML
    Размер файла : 1, 37 Гбайт
    Продолжительность : 1 ч. 24 м.
    Общий поток : 2327 Кбит/сек
    Программа кодирования : XviD4PSP 6.0/54.29.105
    Видео
    Идентификатор : 0
    Формат : xvid
    Идентификатор кодека : xvid
    Продолжительность : 1 ч. 24 м.
    Битрейт : 1796 Кбит/сек
    Ширина : 720 пикселей
    Высота : 304 пикселя
    Соотношение сторон : 2, 40: 1
    Частота кадров : 25, 000 кадров/сек
    Тип развёртки : Прогрессивная
    Бит/(Пиксели*Кадры) : 0.328
    Размер потока : 1, 06 Гбайт (77%)
    Аудио #1
    Идентификатор : 1
    Формат : AC-3
    Формат/Информация : Audio Coding 3
    Коммерческое название : Dolby Digital
    Идентификатор кодека : 2000
    Продолжительность : 1 ч. 24 м.
    Вид битрейта : Постоянный
    Битрейт : 256 Кбит/сек
    Каналы : 2 канала
    ChannelLayout : L R
    Частота : 48, 0 КГц
    Частота кадров : 31, 250 кадров/сек (1536 SPF)
    Битовая глубина : 16 бит
    Метод сжатия : С потерями
    Размер потока : 155 Мбайт (11%)
    Выравнивание : Соединение по промежуткам
    Продолжительность промежутка : 32 мс. (0, 80 видеокадр)
    ServiceKind/String : Complete Main
    Аудио #2
    Идентификатор : 2
    Формат : AC-3
    Формат/Информация : Audio Coding 3
    Коммерческое название : Dolby Digital
    Идентификатор кодека : 2000
    Продолжительность : 1 ч. 24 м.
    Вид битрейта : Постоянный
    Битрейт : 256 Кбит/сек
    Каналы : 2 канала
    ChannelLayout : L R
    Частота : 48, 0 КГц
    Частота кадров : 31, 250 кадров/сек (1536 SPF)
    Битовая глубина : 16 бит
    Метод сжатия : С потерями
    Размер потока : 155 Мбайт (11%)
    Выравнивание : Соединение по промежуткам
    Продолжительность промежутка : 32 мс. (0, 80 видеокадр)
    ServiceKind/String : Complete Main

    Скриншоты для ознакомления



    Все одноименные релизы в Клубе Время раздачи: 24/7 (до появления первых 3-5 скачавших)

    Онлайн видео Оборотень



    Оборотень/Wilkolak (2018) WEB-DLRip [VO]
    Рейтинг →
     (голосов: 1, оценка 3/5, голосовать можно 1 раз )

    Другие торренты по теме:

  • Оборотень / Wilkolak (2018) WEB-DL [H.264 / 1080p-LQ] [VO]


    • Комментарии (0):

      Информация

      Информация

        Посетители, находящиеся в группе Гости, не могут оставлять комментарии в данной новости.

        ↓ Меню




        ↓ Опрос

        Вы добавили сайт в закладки?
        Да
        Нет


        Популярное