.
Авторизация | Регистрация

bitok.xyz

» » Оборотень / Wilkolak (2018) WEB-DL [H.264 / 1080p-LQ] [VO] торрент скачать бесплатно


    Оборотень / Wilkolak (2018) WEB-DL [H.264 / 1080p-LQ] [VO] торрент скачать бесплатно

    Дата: 28-10-2019, 05:00 | .torrent скачали: 0

    Оборотень / Wilkolak (2018) WEB-DL [H.264 / 1080p-LQ] [VO]Производство: Польша, Нидерланды, Германия/Balapolis, Telewizja Polska (TVP), Rosco Polska
    Жанр: Ужасы, драма
    Режиссер: Адриан Панек

    Актеры
    Kamil Polnisiak, Николас Пшигода, Соня Метелица, Данута Стенка, Вернер Даен, Jakub Syska, Helena Mazur, Krzysztof Durski, Maksymilian Balcerowski, Julia Slusarczyk

    Описание

    Вторая мировая война закончилась. Для восьмерых детей, освобождённых из лагеря Гросс-Розен, в лесу был создан временный детский дом в заброшенном дворце. Их опекуном становится двадцатилетняя Ханка, тоже бывшая узница. После ужасов лагеря герои медленно восстанавливают остатки потерянного детства, но скоро кошмар к ним возвращается. В окрестных лесах рыскают лагерные волкодавы. Выпущенные эсэсовцами перед освобождением Гросс-Розена, голодные и одичавшие животные окружают дворец в поисках пищи. В испуганных детях просыпается лагерный инстинкт выживания.

    Дата мировой премьеры: 19 сентября 2018
    Продолжительность: 01: 24: 34
    Качество видео: WEB-DL
    Перевод: Любительский одноголосый (den904)
    Субтитры: Русские (Full)
    Видео: AVC/H.264, 1912x800, ~4450 Kbps
    Аудио #1: AC3, 2 ch, 256 Kbps - Русский
    Аудио #2: AC3, 2 ch, 256 Kbps - Польский
    Аудио #3: AC3, 2 ch, 256 Kbps - Французский
    Общее
    Уникальный идентификатор : 201676675701562458209210416279745229206 (0x97B983CF4B5CBF1FA7623C3B46107196)
    Полное имя : D: NNMОборотеньWilkolak.2018.WEB-DL.1080p-LQ.mkv
    Формат : Matroska
    Версия формата : Version 4
    Размер файла : 3, 08 Гбайт
    Продолжительность : 1 ч. 24 м.
    Общий поток : 5220 Кбит/сек
    Дата кодирования : UTC 2019-10-26 22: 19: 10
    Программа кодирования : mkvmerge v7.1.0 (\'Good Love\') 64bit built on Jul 27 2014 13: 06: 55
    Библиотека кодирования : libebml v1.3.0 + libmatroska v1.4.1
    Видео
    Идентификатор : 1
    Формат : AVC
    Формат/Информация : Advanced Video Codec
    Профиль формата : High@L4
    Настройки формата : CABAC/5 Ref Frames
    Параметр CABAC формата : Да
    Параметр RefFrames формата : 5 кадров
    Идентификатор кодека : V_MPEG4/ISO/AVC
    Продолжительность : 1 ч. 24 м.
    Битрейт : 4450 Кбит/сек
    Ширина : 1912 пикселей
    Высота : 800 пикселей
    Соотношение сторон : 2, 40: 1
    Режим частоты кадров : Постоянный
    Частота кадров : 25, 000 кадров/сек
    Цветовое пространство : YUV
    Субдискретизация насыщенности : 4: 2: 0
    Битовая глубина : 8 бит
    Тип развёртки : Прогрессивная
    Бит/(Пиксели*Кадры) : 0.116
    Размер потока : 2, 63 Гбайт (85%)
    Язык : English
    Default : Да
    Forced : Нет
    Цветовой диапазон : Limited
    Основные цвета : BT.709
    Характеристики трансфера : BT.709
    Коэффициенты матрицы : BT.709
    Аудио #1
    Идентификатор : 2
    Формат : AC-3
    Формат/Информация : Audio Coding 3
    Коммерческое название : Dolby Digital
    Идентификатор кодека : A_AC3
    Продолжительность : 1 ч. 24 м.
    Вид битрейта : Постоянный
    Битрейт : 256 Кбит/сек
    Каналы : 2 канала
    ChannelLayout : L R
    Частота : 48, 0 КГц
    Частота кадров : 31, 250 кадров/сек (1536 SPF)
    Битовая глубина : 16 бит
    Метод сжатия : С потерями
    Размер потока : 155 Мбайт (5%)
    Язык : Russian
    ServiceKind/String : Complete Main
    Default : Да
    Forced : Нет
    Аудио #2
    Идентификатор : 3
    Формат : AC-3
    Формат/Информация : Audio Coding 3
    Коммерческое название : Dolby Digital
    Идентификатор кодека : A_AC3
    Продолжительность : 1 ч. 24 м.
    Вид битрейта : Постоянный
    Битрейт : 256 Кбит/сек
    Каналы : 2 канала
    ChannelLayout : L R
    Частота : 48, 0 КГц
    Частота кадров : 31, 250 кадров/сек (1536 SPF)
    Битовая глубина : 16 бит
    Метод сжатия : С потерями
    Размер потока : 155 Мбайт (5%)
    Язык : Polish
    ServiceKind/String : Complete Main
    Default : Нет
    Forced : Нет
    Аудио #3
    Идентификатор : 4
    Формат : AC-3
    Формат/Информация : Audio Coding 3
    Коммерческое название : Dolby Digital
    Идентификатор кодека : A_AC3
    Продолжительность : 1 ч. 24 м.
    Вид битрейта : Постоянный
    Битрейт : 256 Кбит/сек
    Каналы : 2 канала
    ChannelLayout : L R
    Частота : 48, 0 КГц
    Частота кадров : 31, 250 кадров/сек (1536 SPF)
    Битовая глубина : 16 бит
    Метод сжатия : С потерями
    Размер потока : 155 Мбайт (5%)
    Язык : French
    ServiceKind/String : Complete Main
    Default : Нет
    Forced : Нет
    Текст
    Идентификатор : 5
    Формат : UTF-8
    Идентификатор кодека : S_TEXT/UTF8
    Идентификатор кодека/Информация : UTF-8 Plain Text
    Продолжительность : 1 ч. 19 м.
    Битрейт : 14 бит/сек
    ElementCount : 162
    Размер потока : 8, 41 Кбайт (0%)
    Язык : Russian
    Default : Нет
    Forced : Нет
    Меню
    00: 00: 00.000 : en: Chapitre 1
    00: 10: 44.040 : en: Chapitre 2
    00: 20: 20.240 : en: Chapitre 3
    00: 30: 57.760 : en: Chapitre 4
    00: 42: 18.360 : en: Chapitre 5
    00: 49: 46.600 : en: Chapitre 6
    01: 02: 48.880 : en: Chapitre 7
    01: 12: 00.960 : en: Chapitre 8

    Скриншоты для ознакомления



    Все одноименные релизы в Клубе Время раздачи: 24/7 (до появления первых 3-5 скачавших)

    Онлайн видео Оборотень



    Оборотень/Wilkolak (2018) WEB-DL [H.264/1080p-LQ] [VO]
    Рейтинг →
     (голосов: 1, оценка 5/5, голосовать можно 1 раз )

    Другие торренты по теме:

  • Оборотень / Wilkolak (2018) WEB-DLRip [VO]


    • Комментарии (0):

      Информация

      Информация

        Посетители, находящиеся в группе Гости, не могут оставлять комментарии в данной новости.

        ↓ Меню




        ↓ Опрос

        Вы добавили сайт в закладки?
        Да
        Нет


        Популярное