.
Авторизация | Регистрация

bitok.xyz

» » Джей в Голливуде / Madness in the Method (2019) WEB-DL [H.264 / 720p-LQ] торрент скачать бесплатно


    Джей в Голливуде / Madness in the Method (2019) WEB-DL [H.264 / 720p-LQ] торрент скачать бесплатно

    Дата: 28-10-2019, 05:00 | .torrent скачали: 0

    Джей в Голливуде / Madness in the Method (2019) WEB-DL [H.264 / 720p-LQ]Производство: США/Autumnwood Media, Happy Hour Films
    Жанр: Комедия, криминал
    Режиссер: Джейсон Мьюз
    Продюсер: Мики Гуч мл., Джейсон Мьюз, Фил Бэйнс

    Актеры
    Джейсон Мьюз, Кевин Смит, Джина Карано, Хайме Камиль, Винни Джонс, Дэнни Трехо, Мики Гуч мл., Стэн Ли, Брайан О’Хэллоран, Тери Хэтчер

    Описание

    В альтернативной реальности кинозвезда Кевин Смит раскрывает своему приятелю Джейсону Мьюзу секрет успеха в Голливуде, чтобы тот избавился от вечного амплуа комедианта. Проблемы начинаются, когда Джейсон слишком рьяно следует его методике и начинает играть слишком хорошо, доводя себя до безумия.

    Дата мировой премьеры: 2 августа 2019
    Цифровой релиз: 24 октября 2019, Вольга
    Релиз от: TeamHD
    Продолжительность: 01: 39: 08
    Качество видео: WEB-DL 720p
    Перевод: Дублированный(iTunes)
    Субтитры: Русские (Full)
    Видео: AVC/H.264, 1280x536, 4052 Kbps, 24.000 fps
    Аудио : AC-3, 6 ch, 384 Kbps | Русский
    General
    Unique ID : 289893684431216776593323997016832344600 (0xDA177E25179BFED45F26A762FC380218)
    Complete name : /Volumes/Promise 2/Madness.in.the.Method.WEB-DL.720p.TeamHD.mkv
    Format : Matroska
    Format version : Version 4
    File size : 3.07 GiB
    Duration : 1h 39mn
    Overall bit rate : 4 438 Kbps
    Movie name : Madness in the Method WEB-DL 720p TeamHD
    Encoded date : UTC 2019-10-26 23: 51: 33
    Writing application : mkvmerge v38.0.0 (\'The Silent Type\') 64-bit
    Writing library : libebml v1.3.9 + libmatroska v1.5.2
    Video
    ID : 1
    Format : AVC
    Format/Info : Advanced Video Codec
    Format profile : Main@L3.1
    Format settings : 2 Ref Frames
    Format settings, CABAC : No
    Format settings, ReFrames : 2 frames
    Codec ID : V_MPEG4/ISO/AVC
    Duration : 1h 39mn
    Bit rate : 4 052 Kbps
    Width : 1 280 pixels
    Height : 536 pixels
    Display aspect ratio : 2.40: 1
    Frame rate mode : Constant
    Frame rate : 24.000 fps
    Color space : YUV
    Chroma subsampling : 4: 2: 0
    Bit depth : 8 bits
    Scan type : Progressive
    Bits/(Pixel*Frame) : 0.246
    Stream size : 2.81 GiB (91%)
    Language : English
    Default : Yes
    Forced : No
    Color range : Limited
    Color primaries : BT.709
    Transfer characteristics : BT.709
    Matrix coefficients : BT.709
    Audio
    ID : 2
    Format : AC-3
    Format/Info : Audio Coding 3
    Commercial name : Dolby Digital
    Codec ID : A_AC3
    Duration : 1h 39mn
    Bit rate mode : Constant
    Bit rate : 384 Kbps
    Channel(s) : 6 channels
    Channel layout : L R C LFE Ls Rs
    Sampling rate : 48.0 KHz
    Frame rate : 31.250 fps (1536 SPF)
    Bit depth : 16 bits
    Compression mode : Lossy
    Stream size : 272 MiB (9%)
    Title : Russian DUB iTunes
    Language : Russian
    Service kind : Complete Main
    Default : Yes
    Forced : No
    Text
    ID : 3
    Format : UTF-8
    Codec ID : S_TEXT/UTF8
    Codec ID/Info : UTF-8 Plain Text
    Duration : 1h 37mn
    Bit rate : 247 bps
    Count of elements : 1537
    Stream size : 178 KiB (0%)
    Title : Russian full
    Language : Russian
    Default : No
    Forced : No
    Menu
    00: 00: 00.000 : en: Глава 1
    00: 06: 03.458 : en: Глава 2
    00: 12: 16.791 : en: Глава 3
    00: 16: 45.166 : en: Глава 4
    00: 24: 47.207 : en: Глава 5
    00: 32: 30.832 : en: Глава 6
    00: 38: 39.790 : en: Глава 7
    00: 46: 58.581 : en: Глава 8
    00: 52: 39.789 : en: Глава 9
    01: 00: 50.289 : en: Глава 10
    01: 07: 34.914 : en: Глава 11
    01: 14: 13.622 : en: Глава 12
    01: 21: 06.372 : en: Глава 13
    01: 24: 12.663 : en: Глава 14
    01: 30: 36.246 : en: Глава 15

    Скриншоты для ознакомления



    Все одноименные релизы в Клубе
    Время раздачи: 24/7 (круглосуточно) (до появления первых 3-5 скачавших)

    Онлайн видео Джей в Голливуде



    Джей в Голливуде/Madness in the Method (2019) WEB-DL [H.264/720p-LQ]
    Рейтинг →
     (голосов: 1, оценка 5/5, голосовать можно 1 раз )

    Другие торренты по теме:

  • Джей в Голливуде / Madness in the Method (2019) WEB-DLRip
  • Джей в Голливуде / Madness in the Method (2019) WEB-DL [H.264 / 1080p-LQ]
  • Джей в Голливуде / Madness in the Method (2019) WEB-DLRip [H.265] [10-bit]


    • Комментарии (0):

      Информация

      Информация

        Посетители, находящиеся в группе Гости, не могут оставлять комментарии в данной новости.

        ↓ Меню




        ↓ Опрос

        Вы добавили сайт в закладки?
        Да
        Нет


        Популярное