.
Авторизация | Регистрация

bitok.xyz

» » Решение о ликвидации (2018) UHD WEB-DL [VP9 / 2160p] торрент скачать бесплатно


    Решение о ликвидации (2018) UHD WEB-DL [VP9 / 2160p] торрент скачать бесплатно

    Дата: 28-10-2019, 05:00 | .torrent скачали: 0

    Решение о ликвидации (2018) UHD WEB-DL [VP9 / 2160p]Производство: Россия/Мосфильм
    Жанр: Военный, Боевик, Драма
    Режиссер: Александр Аравин
    Продюсер: Карен Шахназаров, Галина Шадур

    Актеры
    Игорь Петренко, Иван Шахназаров, Алексей Вертков, Аюб Цингиев, Алексей Шевченков, Дмитрий Парастаев, Дагун Омаев, Сослан Фидаров, Кирилл Краснов, Шамиль Алханов

    Описание

    Особое задание спецгруппы ФСБ — ликвидация одержимого террориста Шамиля Базгаева. Охота продолжается уже долго, но жестокий лидер боевиков раз за разом ускользает. Однако, когда Базгаеву удается заполучить мощное оружие для осуществления своего самого страшного теракта, у оперативников больше нет права на ошибку. Для этих спецов преодоление себя, смертельный риск и подвиг — не что-то сверхъестественное, а каждодневный тяжелый труд. Но, кажется, даже для них эта операция — за пределами возможностей…

    Возраст: 12+ (зрителям, достигшим 12 лет)
    Продолжительность: 01: 36: 11
    Качество видео: UHD WEB-DL
    Видео: VP9, 3840x1584, ~10, 4 Mbps
    Аудио: AC3, 6 ch, 640 Kbps
    Субтитры: русские форсированные на чеченскую речь (hardsub)
    Общее
    Уникальный идентификатор : 242851107321458681084974313060464021692 (0xB6B36C05B041417A704988A8D36B50BC)
    Полное имя : E: VideoРешение о ликвидации.mkv
    Формат : Matroska
    Версия формата : Version 4/Version 2
    Размер файла : 7, 44 Гбайт
    Продолжительность : 1 ч. 36 м.
    Общий поток : 11, 1 Мбит/сек
    Название фильма : Решение о ликвидации
    Дата выпуска : 2018
    Дата кодирования : UTC 2019-10-26 04: 46: 16
    Программа кодирования : mkvmerge v34.0.0 (\'Sight and Seen\') 64-bit
    Библиотека кодирования : libebml v1.3.7 + libmatroska v1.5.0
    Обложка : Yes
    Attachments : cover.jpg
    Released by : Buba5473 for NNM-Club
    Видео
    Идентификатор : 1
    Формат : VP9
    Идентификатор кодека : V_VP9
    Продолжительность : 1 ч. 36 м.
    Битрейт : 10, 4 Мбит/сек
    Ширина : 3840 пикселей
    Высота : 1584 пикселей
    Высота оригинала : 2160 пикселей
    Соотношение сторон : 2, 42: 1
    Режим частоты кадров : Постоянный
    Частота кадров : 24, 000 кадра/сек
    Цветовое пространство : YUV
    Бит/(Пиксели*Кадры) : 0.052
    Размер потока : 7, 01 Гбайт (94%)
    Язык : Russian
    Default : Да
    Forced : Нет
    Цветовой диапазон : Limited
    Основные цвета : BT.709
    Характеристики трансфера : BT.709
    Коэффициенты матрицы : BT.709
    Аудио
    Идентификатор : 2
    Формат : AC-3
    Формат/Информация : Audio Coding 3
    Коммерческое название : Dolby Digital
    Идентификатор кодека : A_AC3
    Продолжительность : 1 ч. 36 м.
    Вид битрейта : Постоянный
    Битрейт : 640 Кбит/сек
    Каналы : 6 каналов
    Channel layout : L R C LFE Ls Rs
    Частота : 48, 0 КГц
    Частота кадров : 31, 250 кадров/сек (1536 SPF)
    Битовая глубина : 16 бит
    Метод сжатия : С потерями
    Размер потока : 440 Мбайт (6%)
    Язык : Russian
    ServiceKind/String : Complete Main
    Default : Да
    Forced : Нет

    Скриншоты для ознакомления



    Все одноименные релизы в Клубе
    Время раздачи: с 11: 00 до 21: 00 по Новосибирску (UTC +7) (до появления первых 3-5 скачавших)

    Онлайн видео Решение о ликвидации (2018) UHD WEB-DL [VP9



    Решение о ликвидации (2018) UHD WEB-DL [VP9/2160p]
    Рейтинг →
     (голосов: 1, оценка 5/5, голосовать можно 1 раз )

    Другие торренты по теме:

  • Решение о ликвидации (2018) TS [AD]
  • Решение о ликвидации (2018) WEB-DLRip [H.264 / 1080p-LQ] [AD]
  • Решение о ликвидации (2018) BDRip
  • Решение о ликвидации (2018) BDRip [H.264 / 1080p]
  • Решение о ликвидации (2018) BDRemux [H.264 / 1080p]
  • Решение о ликвидации (2018) BDRip [1080p] ATV
  • Решение о ликвидации (2018) BDRip [576p] iPad
  • Решение о ликвидации (2018) BDRip [720p] ATV


    • Комментарии (0):

      Информация

      Информация

        Посетители, находящиеся в группе Гости, не могут оставлять комментарии в данной новости.

        ↓ Меню




        ↓ Опрос

        Вы добавили сайт в закладки?
        Да
        Нет


        Популярное