.
Авторизация | Регистрация

bitok.xyz

» » Полынь: Дорога мёртвых / Лесной змей / Wyrmwood (2014) BDRip [H.264 / 720p] [MVO] торрент скачать бесплатно


    Полынь: Дорога мёртвых / Лесной змей / Wyrmwood (2014) BDRip [H.264 / 720p] [MVO] торрент скачать бесплатно

    Дата: 28-10-2019, 05:00 | .torrent скачали: 0

    Полынь: Дорога мёртвых / Лесной змей / Wyrmwood (2014) BDRip [H.264 / 720p] [MVO]Производство: Австралия/Guerilla Films
    Жанр: Ужасы, боевик, комедия
    Режиссер: Кия Роуч-Тернер
    Продюсер: Samantha Cordingley, Джон А. Хери, Джэми Хилтон

    Актеры
    Джей Галлахер, Бьянка Брэди, Леон Бурчилл, Кит Агиус, Беринн Швердт, Люк МакКензи, Кэйн Томпсон, Дэмиэн Дайк, Юр Кович, Катрин Террачини

    Описание

    Барри был талантливым механиком и семейным человеком, пока его счастливая жизнь не закончилась с началом зомби-апокалипсиса. Он объединяется с ещё одним выжившим, Чалкером, и вместе они вооружаются, чтобы противостоять орде плотоядных монстров, рыщущих в суровых австралийских зарослях.

    Релиз от: NNMClub
    Продолжительность: 01: 38: 36
    Качество видео: BDRip 720p (Heisenberg )
    Перевод: Профессиональный (многоголосый, закадровый), авторский (одноголосый)
    Субтитры: Русские, английские (full, SDH, SDH-Colored)
    Видео: AVC/H.264, 1280x720, (16: 9), 8000 Kbps, 23.976 fps
    Аудио 1: AC3, 6 ch, 640 Kbps - Русский (MVO - СВ Студия (без цензуры))
    Аудио 2: AC3, 6 ch, 640 Kbps - Русский (AVO - Д. Есарер (без цензуры))
    Аудио 3: AC3, 6 ch, 640 Kbps - Русский (AVO - Д. Есарер)
    Аудио 4: AC3, 6 ch, 640 Kbps - Английский (оригинал)
    Аудио 5: AC3, 2 ch, 128 Kbps - Английский (комментарии)
    Внимание! В дорожках № 1, 2, а также в русских субтитрах присутствует ненормативная лексика. General
    Unique ID : 59829695868947206335020646342534075861 (0x2D02C7C0AD29197A929884A15C4395D5)
    Complete name : D: Wyrmwood.2014.BDRip.720p.NNMClub.mkv
    Format : Matroska
    Format version : Version 4
    File size : 7.36 GiB
    Duration : 1 h 38 min
    Overall bit rate : 10.7 Mb/s
    Movie name : Wyrmwood (2014) | NNMClub
    Encoded date : UTC 2019-10-27 12: 19: 09
    Writing application : mkvmerge v38.0.0 (\'The Silent Type\') 64-bit
    Writing library : libebml v1.3.9 + libmatroska v1.5.2
    Cover : Yes
    Attachments : Cover.jpg/x264.log
    Video
    ID : 1
    Format : AVC
    Format/Info : Advanced Video Codec
    Format profile : High@L4.1
    Format settings : CABAC/9 Ref Frames
    Format settings, CABAC : Yes
    Format settings, Reference : 9 frames
    Codec ID : V_MPEG4/ISO/AVC
    Duration : 1 h 38 min
    Bit rate : 8 000 kb/s
    Width : 1 280 pixels
    Height : 720 pixels
    Display aspect ratio : 16: 9
    Frame rate mode : Constant
    Frame rate : 23.976 (24000/1001) FPS
    Color space : YUV
    Chroma subsampling : 4: 2: 0
    Bit depth : 8 bits
    Scan type : Progressive
    Bits/(Pixel*Frame) : 0.362
    Stream size : 5.51 GiB (75%)
    Title : Wyrmwood (2014)
    Writing library : x264 core 158 r2984 3759fcb
    Encoding settings : cabac=1/ref=9/deblock=1: -2: -2/analyse=0x3: 0x133/me=esa/subme=11/psy=1/psy_rd=1.00: 0.00/mixed_ref=1/me_range=32/chroma_me=1/trellis=2/8x8dct=1/cqm=0/deadzone=21, 11/fast_pskip=0/chroma_qp_offset=-2/threads=12/lookahead_threads=2/sliced_threads=0/nr=0/decimate=0/interlaced=0/bluray_compat=0/constrained_intra=0/bframes=9/b_pyramid=2/b_adapt=2/b_bias=0/direct=3/weightb=1/open_gop=0/weightp=2/keyint=240/keyint_min=23/scenecut=40/intra_refresh=0/rc_lookahead=60/rc=2pass/mbtree=0/bitrate=8000/ratetol=1.0/qcomp=0.60/qpmin=0/qpmax=69/qpstep=4/cplxblur=20.0/qblur=0.5/vbv_maxrate=50000/vbv_bufsize=62500/nal_hrd=none/filler=0/ip_ratio=1.40/pb_ratio=1.30/aq=3: 0.80
    Language : English
    Default : Yes
    Forced : No
    Audio #1
    ID : 2
    Format : AC-3
    Format/Info : Audio Coding 3
    Commercial name : Dolby Digital
    Codec ID : A_AC3
    Duration : 1 h 38 min
    Bit rate mode : Constant
    Bit rate : 640 kb/s
    Channel(s) : 6 channels
    Channel layout : L R C LFE Ls Rs
    Sampling rate : 48.0 kHz
    Frame rate : 31.250 FPS (1536 SPF)
    Compression mode : Lossy
    Stream size : 451 MiB (6%)
    Title : MVO | СВ Студия (без цензуры)
    Language : Russian
    Service kind : Complete Main
    Default : Yes
    Forced : No
    Audio #2
    ID : 3
    Format : AC-3
    Format/Info : Audio Coding 3
    Commercial name : Dolby Digital
    Codec ID : A_AC3
    Duration : 1 h 38 min
    Bit rate mode : Constant
    Bit rate : 640 kb/s
    Channel(s) : 6 channels
    Channel layout : L R C LFE Ls Rs
    Sampling rate : 48.0 kHz
    Frame rate : 31.250 FPS (1536 SPF)
    Compression mode : Lossy
    Stream size : 451 MiB (6%)
    Title : AVO | Д.Есарев (без цензуры)
    Language : Russian
    Service kind : Complete Main
    Default : No
    Forced : No
    Audio #3
    ID : 4
    Format : AC-3
    Format/Info : Audio Coding 3
    Commercial name : Dolby Digital
    Codec ID : A_AC3
    Duration : 1 h 38 min
    Bit rate mode : Constant
    Bit rate : 640 kb/s
    Channel(s) : 6 channels
    Channel layout : L R C LFE Ls Rs
    Sampling rate : 48.0 kHz
    Frame rate : 31.250 FPS (1536 SPF)
    Compression mode : Lossy
    Stream size : 451 MiB (6%)
    Title : AVO | Д.Есарев (цензура)
    Language : Russian
    Service kind : Complete Main
    Default : No
    Forced : No
    Audio #4
    ID : 5
    Format : AC-3
    Format/Info : Audio Coding 3
    Commercial name : Dolby Digital
    Codec ID : A_AC3
    Duration : 1 h 38 min
    Bit rate mode : Constant
    Bit rate : 640 kb/s
    Channel(s) : 6 channels
    Channel layout : L R C LFE Ls Rs
    Sampling rate : 48.0 kHz
    Frame rate : 31.250 FPS (1536 SPF)
    Compression mode : Lossy
    Stream size : 451 MiB (6%)
    Title : Original
    Language : English
    Service kind : Complete Main
    Default : No
    Forced : No
    Audio #5
    ID : 6
    Format : AC-3
    Format/Info : Audio Coding 3
    Commercial name : Dolby Digital
    Codec ID : A_AC3
    Duration : 1 h 38 min
    Bit rate mode : Constant
    Bit rate : 128 kb/s
    Channel(s) : 2 channels
    Channel layout : L R
    Sampling rate : 48.0 kHz
    Frame rate : 31.250 FPS (1536 SPF)
    Compression mode : Lossy
    Stream size : 90.3 MiB (1%)
    Title : Commentary
    Language : English
    Service kind : Complete Main
    Default : No
    Forced : No
    Text #1
    ID : 7
    Format : UTF-8
    Codec ID : S_TEXT/UTF8
    Codec ID/Info : UTF-8 Plain Text
    Duration : 1 h 34 min
    Bit rate : 51 b/s
    Count of elements : 818
    Stream size : 35.4 KiB (0%)
    Title : Full
    Language : Russian
    Default : No
    Forced : No
    Text #2
    ID : 8
    Format : UTF-8
    Codec ID : S_TEXT/UTF8
    Codec ID/Info : UTF-8 Plain Text
    Duration : 1 h 34 min
    Bit rate : 29 b/s
    Count of elements : 826
    Stream size : 20.2 KiB (0%)
    Title : Full
    Language : English
    Default : No
    Forced : No
    Text #3
    ID : 9
    Format : UTF-8
    Codec ID : S_TEXT/UTF8
    Codec ID/Info : UTF-8 Plain Text
    Duration : 1 h 34 min
    Bit rate : 33 b/s
    Count of elements : 1007
    Stream size : 23.3 KiB (0%)
    Title : SDH
    Language : English
    Default : No
    Forced : No
    Text #4
    ID : 10
    Format : UTF-8
    Codec ID : S_TEXT/UTF8
    Codec ID/Info : UTF-8 Plain Text
    Duration : 1 h 34 min
    Bit rate : 42 b/s
    Count of elements : 1007
    Stream size : 29.6 KiB (0%)
    Title : SDH-Colored
    Language : English
    Default : No
    Forced : No
    Menu
    00: 00: 00.000 : en: 00: 00: 00.000
    00: 07: 13.058 : en: 00: 07: 13.058
    00: 10: 21.621 : en: 00: 10: 21.621
    00: 18: 11.090 : en: 00: 18: 11.090
    00: 23: 59.438 : en: 00: 23: 59.438
    00: 29: 03.742 : en: 00: 29: 03.742
    00: 36: 35.819 : en: 00: 36: 35.819
    00: 46: 07.765 : en: 00: 46: 07.765
    00: 51: 04.061 : en: 00: 51: 04.061
    00: 56: 51.408 : en: 00: 56: 51.408
    01: 01: 08.290 : en: 01: 01: 08.290
    01: 07: 37.679 : en: 01: 07: 37.679
    01: 13: 06.382 : en: 01: 13: 06.382
    01: 19: 41.777 : en: 01: 19: 41.777
    01: 22: 05.879 : en: 01: 22: 05.879
    01: 34: 57.317 : en: 01: 34: 57.317x264 info: profile High, level 4.1, 4: 2: 0, 8-bit
    x264 info: frame I: 1225 Avg QP: 14.79 size: 157227
    x264 info: frame P: 33489 Avg QP: 17.08 size: 70059
    x264 info: frame B: 107120 Avg QP: 19.15 size: 31496
    x264 info: consecutive B-frames: 3.2% 3.8% 11.0% 21.1% 16.1% 38.8% 3.4% 0.9% 0.8% 0.8%
    x264 info: mb I I16..4: 3.3% 80.4% 16.3%
    x264 info: mb P I16..4: 0.8% 23.8% 2.0% P16..4: 24.1% 32.7% 13.6% 2.2% 0.1% skip: 0.5%
    x264 info: mb B I16..4: 0.1% 3.1% 0.3% B16..8: 39.5% 26.7% 5.4% direct: 9.2% skip: 15.7% L0: 46.4% L1: 41.9% BI: 11.7%
    x264 info: 8x8 transform intra: 88.8% inter: 58.6%
    x264 info: direct mvs spatial: 99.0% temporal: 1.0%
    x264 info: coded y, uvDC, uvAC intra: 95.9% 73.0% 34.4% inter: 47.5% 28.9% 6.2%
    x264 info: i16 v, h, dc, p: 16% 8% 6% 70%
    x264 info: i8 v, h, dc, ddl, ddr, vr, hd, vl, hu: 7% 7% 8% 11% 15% 14% 14% 12% 14%
    x264 info: i4 v, h, dc, ddl, ddr, vr, hd, vl, hu: 7% 6% 4% 9% 17% 15% 15% 12% 14%
    x264 info: i8c dc, h, v, p: 34% 29% 18% 19%
    x264 info: Weighted P-Frames: Y: 7.7% UV: 4.3%
    x264 info: ref P L0: 48.0% 6.9% 17.0% 8.8% 6.3% 4.8% 3.9% 2.4% 1.8% 0.2% 0.0%
    x264 info: ref B L0: 74.3% 11.7% 6.0% 3.1% 2.2% 1.6% 0.9% 0.3%
    x264 info: ref B L1: 95.3% 4.7%
    x264 info: kb/s: 7995.90
    Скриншоты для ознакомления


    Все одноименные релизы в Клубе
    Время раздачи: 24/7 до первых 10-и скачавших

    Онлайн видео Полынь: Дорога мёртвых



    Полынь: Дорога мёртвых/Лесной змей/Wyrmwood (2014) BDRip [H.264/720p] [MVO]
    Рейтинг →
     (голосов: 1, оценка 4/5, голосовать можно 1 раз )

    Другие торренты по теме:

  • Лесной змей (Полынь: Дорога мертвых) / Wyrmwood: Road of the dead (2014) Blu-ray [H.264 / 1080p] [Custom]
  • Полынь: Дорога мёртвых / Лесной змей / Wyrmwood (2014) BDRip [H.264] [MVO]
  • Полынь: Дорога мёртвых / Лесной змей / Wyrmwood (2014) BDRip [H.264 / 1080p] [MVO]


    • Комментарии (0):

      Информация

      Информация

        Посетители, находящиеся в группе Гости, не могут оставлять комментарии в данной новости.

        ↓ Меню




        ↓ Опрос

        Вы добавили сайт в закладки?
        Да
        Нет


        Популярное