.
Авторизация | Регистрация

bitok.xyz

» » Идеальная кожа / Perfect Skin (2018) BDRip [H.265 / 1080p] [10-bit] [MVO] [PR] торрент скачать бесплатно


    Идеальная кожа / Perfect Skin (2018) BDRip [H.265 / 1080p] [10-bit] [MVO] [PR] торрент скачать бесплатно

    Дата: 28-10-2019, 05:00 | .torrent скачали: 0

    Идеальная кожа / Perfect Skin (2018) BDRip [H.265 / 1080p] [10-bit] [MVO] [PR]Производство: Великобритания
    Жанр: Ужасы, триллер
    Режиссер: Kevin Chicken

    Актеры
    Ричард Брэйк, Наталья Кострцева, Джо Вудкок, Том Эшли, Jemima Bennett, Oscar Bennett, Дэвид Кристофер-Тернер, Сартаж Гаревал, Emma-Jane Hinds, Камерон Джек

    Описание

    События разворачиваются вокруг девушки по имени Катя, которая испытывает серьезные финансовые проблемы, и поэтому просит свою хорошую подругу Люси приютить её у себя дома на несколько дней. После бурного вечера в клубе девушки отправляются к Бобу — экстравагантному татуировщику, который оказывается восхищен красотой кожи Кати и предлагает ей сделать тату. А через некоторое время мужчина решается на крайне отчаянный поступок: он похищает девушку, чтобы использовать её идеальную кожу в качестве полотна для своих шедевров.

    Рейтинг MPAA: R (лицам до 17 лет обязательно присутствие взрослого)
    Продолжительность: 01: 42: 23
    Качество видео: BDRip (1080p)
    Перевод: Многоголосый профессиональный (HDRezka Studio)
    Субтитры: Русские (форсированные), английские
    Видео: HEVC/H.265, 1920x804, ~8758 Kbps
    Аудио 1: AC3, 2 ch, 192 Kbps - Русский
    Аудио 2: AC3, 6 ch, 640 Kbps - Английский
    Общее
    Уникальный идентификатор : 50629367051032257777717660245387656693 (0x2616DC85298CF079F2559C7680E43DF5)
    Полное имя : Perfect.Skin.2018.BDRip.1080p.10bit.HEVC.mkv
    Формат : Matroska
    Версия формата : Version 4/Version 2
    Размер файла : 7, 00 Гбайт
    Продолжительность : 1 ч. 42 м.
    Общий поток : 9784 Кбит/сек
    Программа кодирования : XviD4PSP 8.0.77
    Библиотека кодирования : Lavf58.20.100
    ErrorDetectionType : Per level 1
    ENCODING_INFO : MATROSKA, WEBM MKV
    Видео
    Идентификатор : 1
    Формат : HEVC
    Формат/Информация : High Efficiency Video Coding
    Профиль формата : Main10@L4.1@High
    Идентификатор кодека : V_MPEGH/ISO/HEVC
    Продолжительность : 1 ч. 42 м.
    Битрейт : 8758 Кбит/сек
    Ширина : 1920 пикселей
    Высота : 804 пикселя
    Соотношение сторон : 2, 40: 1
    Режим частоты кадров : Постоянный
    Частота кадров : 24, 000 кадра/сек
    Цветовое пространство : YUV
    Субдискретизация насыщенности : 4: 2: 0
    Битовая глубина : 10 бит
    Бит/(Пиксели*Кадры) : 0.236
    Размер потока : 6, 26 Гбайт (90%)
    Заголовок : Perfect.Skin.2018
    Язык : English
    Default : Да
    Forced : Нет
    Цветовой диапазон : Limited
    Основные цвета : BT.709
    Характеристики трансфера : BT.709
    Коэффициенты матрицы : BT.709
    ENCODING_INFO : H264 HEVC NVENC VBR 9000kbps HQ
    Аудио #1
    Идентификатор : 2
    Формат : AC-3
    Формат/Информация : Audio Coding 3
    Параметр Endianness формата : Big
    Идентификатор кодека : A_AC3
    Продолжительность : 1 ч. 42 м.
    Вид битрейта : Постоянный
    Битрейт : 192 Кбит/сек
    Каналы : 2 канала
    Расположение каналов : Front: L R
    Частота : 48, 0 КГц
    Частота кадров : 31, 250 кадров/сек (1536 SPF)
    Битовая глубина : 16 бит
    Метод сжатия : С потерями
    Размер потока : 141 Мбайт (2%)
    Заголовок : MVO HDRezka Studio
    Язык : Russian
    ServiceKind/String : Complete Main
    Default : Да
    Forced : Нет
    ENCODING_INFO : AAC-LC AC3 CBR 192kbps
    Аудио #2
    Идентификатор : 3
    Формат : AC-3
    Формат/Информация : Audio Coding 3
    Параметр Endianness формата : Big
    Идентификатор кодека : A_AC3
    Продолжительность : 1 ч. 42 м.
    Вид битрейта : Постоянный
    Битрейт : 640 Кбит/сек
    Каналы : 6 каналов
    Расположение каналов : Front: L C R, Side: L R, LFE
    Частота : 48, 0 КГц
    Частота кадров : 31, 250 кадров/сек (1536 SPF)
    Битовая глубина : 16 бит
    Метод сжатия : С потерями
    Размер потока : 469 Мбайт (7%)
    Язык : English
    ServiceKind/String : Complete Main
    Default : Нет
    Forced : Нет
    ENCODING_INFO : DTS-HD MA AC3 CBR 640kbps
    Текст #1
    Идентификатор : 4
    Формат : UTF-8
    Идентификатор кодека : S_TEXT/UTF8
    Идентификатор кодека/Информация : UTF-8 Plain Text
    Заголовок : forced
    Язык : Russian
    Default : Да
    Forced : Да
    ENCODING_INFO : SUBRIP COPY Быстрое
    Текст #2
    Идентификатор : 5
    Формат : UTF-8
    Идентификатор кодека : S_TEXT/UTF8
    Идентификатор кодека/Информация : UTF-8 Plain Text
    Язык : English
    Default : Нет
    Forced : Нет
    ENCODING_INFO : SUBRIP COPY Быстрое
    Меню
    00: 00: 00.000 : : Chapter 01
    00: 08: 13.541 : : Chapter 02
    00: 16: 55.750 : : Chapter 03
    00: 25: 52.125 : : Chapter 04
    00: 33: 54.750 : : Chapter 05
    00: 43: 02.791 : : Chapter 06
    00: 51: 10.333 : : Chapter 07
    01: 00: 16.208 : : Chapter 08
    01: 08: 13.958 : : Chapter 09
    01: 14: 42.125 : : Chapter 10
    01: 26: 45.458 : : Chapter 11
    01: 33: 00.041 : : Chapter 12
    01: 38: 59.875 : : Chapter 13
    01: 42: 21.375 : : Chapter 14

    Скриншоты для ознакомления



    Все одноименные релизы в Клубе
    Время раздачи: 24/7 (до появления первых 3-5 скачавших)

    Онлайн видео Идеальная кожа



    Идеальная кожа/Perfect Skin (2018) BDRip [H.265/1080p] [10-bit] [MVO] [PR]
    Рейтинг →
     (голосов: 1, оценка 5/5, голосовать можно 1 раз )

    Другие торренты по теме:

  • Идеальная кожа / Perfect Skin (2018) BDRemux [H.264 / 1080p] [MVO]
  • Идеальная кожа / Perfect Skin (2018) BDRip [H.265 / 720p] [10-bit] [MVO] [PR]
  • Идеальная кожа / Perfect Skin (2018) BDRip [H.265] [MVO] [10-bit]


    • Комментарии (0):

      Информация

      Информация

        Посетители, находящиеся в группе Гости, не могут оставлять комментарии в данной новости.

        ↓ Меню




        ↓ Опрос

        Вы добавили сайт в закладки?
        Да
        Нет


        Популярное