.
Авторизация | Регистрация

bitok.xyz

» » Большой Лебовски / The Big Lebowski (1998) UHD BDRip [H.265 / 2160p-LQ] [4K, HDR, 10-bit] торрент скачать бесплатно


    Большой Лебовски / The Big Lebowski (1998) UHD BDRip [H.265 / 2160p-LQ] [4K, HDR, 10-bit] торрент скачать бесплатно

    Дата: 28-10-2019, 05:00 | .torrent скачали: 0

    Большой Лебовски / The Big Lebowski (1998) UHD BDRip [H.265 / 2160p-LQ] [4K, HDR, 10-bit]Производство: США, Великобритания/Polygram Filmed Entertainment, Working Title Films
    Жанр: Комедия, Криминал
    Режиссер: Джоэл Коэн, Итан Коэн

    Актеры
    Джефф Бриджес, Джон Гудман, Джулианна Мур, Стив Бушеми, Дэвид Хаддлстон, Филип Сеймур Хоффман, Тара Рид, Бен Газзара, Сэм Эллиотт, Петер Стормаре

    Описание

    Лос-Анджелес, 1991 год, война в Персидском заливе. Главный герой по прозвищу Чувак считает себя совершенно счастливым человеком. Его жизнь составляют игра в боулинг и выпивка. Но внезапно его счастье нарушается, гангстеры по ошибке принимают его за миллионера-однофамильца, требуют деньги, о которых он ничего не подозревает, и, ко всему прочему, похищают жену миллионера, будучи уверенными, что муж выплатит за нее любую сумму.

    Возраст: 18+ (зрителям, достигшим 18 лет. запрещено для детей)
    Рейтинг MPAA: R (лицам до 17 лет обязательно присутствие взрослого)
    Релиз от: Tigole
    Продолжительность: 01: 57: 23
    Качество видео: UHD BDRip
    Перевод: Дублированный, Многоголосый закадровый x2, Двуголосый закадровый, Одноголосый закадровый x8
    Субтитры: русские, английские
    Видео: HEVC/H.265, 3840x2076, ~11 Mbps
    Аудио 1: AAC, 8 ch, 601 Kbps (английский)
    Аудио 2: AC3, 6 ch, 384 Kbps (русский, дубляж - Амальгама)
    Аудио 3: AC3, 2 ch, 640 Kbps (русский, многоголосый - Первый канал)
    Аудио 4: AC3, 6 ch, 448 Kbps (русский, многоголосый - Киномания)
    Аудио 5: AC3, 2 ch, 448 Kbps (русский, двуголосый - D2Lab)
    Аудио 6: AC3, 6 ch, 640 Kbps (русский, одноголосый - Л. Володарский, ненормативная лексика)
    Аудио 7: AC3, 6 ch, 640 Kbps (русский, одноголосый - А. Гаврилов)
    Аудио 8: AC3, 2 ch, 192 Kbps (русский, одноголосый - В. Горчаков)
    Аудио 9: AC3, 6 ch, 640 Kbps (русский, одноголосый - Ю. Живов)
    Аудио 10: AC3, 6 ch, 640 Kbps (русский, одноголосый - А. Кашкин)
    Аудио 11: AC3, 6 ch, 640 Kbps (русский, одноголосый - Д. Пучков (Goblin), ненормативная лексика) - поздний
    Аудио 12: AC3, 6 ch, 640 Kbps (русский, одноголосый - Ю. Сербин, ненормативная лексика)
    Аудио 13: AC3, 6 ch, 640 Kbps (русский, одноголосый - Э. Шиндляпин)
    Общее
    Уникальный идентификатор : 1271744945345118223267629013512593408 (0xF4EDDDE695CAA5DB960B6148DDA000)
    Полное имя : E: VideoБольшой Лебовски (The Big Lebowski).mkv
    Формат : Matroska
    Версия формата : Version 4/Version 2
    Размер файла : 14, 9 Гбайт
    Продолжительность : 1 ч. 57 м.
    Общий поток : 18, 2 Мбит/сек
    Название фильма : Большой Лебовски/The Big Lebowski
    Кодирование произвёл : Tigole
    Дата выпуска : 1998
    Дата кодирования : UTC 2019-10-26 09: 30: 22
    Программа кодирования : mkvmerge v34.0.0 (\'Sight and Seen\') 64-bit
    Библиотека кодирования : libebml v1.3.7 + libmatroska v1.5.0
    Обложка : Yes
    Attachments : cover.jpg/cover.png
    Released by : Buba5473 for NNM-Club
    Видео
    Идентификатор : 1
    Формат : HEVC
    Формат/Информация : High Efficiency Video Coding
    Профиль формата : Main 10@L5@Main
    Идентификатор кодека : V_MPEGH/ISO/HEVC
    Продолжительность : 1 ч. 57 м.
    Битрейт : 11, 0 Мбит/сек
    Ширина : 3840 пикселей
    Высота : 2076 пикселей
    Соотношение сторон : 1, 85: 1
    Режим частоты кадров : Постоянный
    Частота кадров : 23, 976 (24000/1001) кадра/сек
    Цветовое пространство : YUV
    Субдискретизация насыщенности : 4: 2: 0
    Битовая глубина : 10 бит
    Бит/(Пиксели*Кадры) : 0.058
    Размер потока : 9, 01 Гбайт (60%)
    Заголовок : The Big Lebowski (1998) (2160p BluRay x265 10bit HDR Tigole)
    Библиотека кодирования : x265 2.9+1-169e76b6bbcc: WindowsGCC 8.2.064 bit 10bit
    Настройки программы : cpuid=1111039/frame-threads=3/numa-pools=8/wpp/no-pmode/no-pme/no-psnr/no-ssim/log-level=2/input-csp=1/input-res=3840x2076/interlace=0/total-frames=168603/level-idc=0/high-tier=1/uhd-bd=0/ref=4/no-allow-non-conformance/repeat-t_heads/annexb/no-aud/no-hrd/info/hash=0/no-temporal-layers/open-gop/min-keyint=23/keyint=250/gop-lookahead=0/bframes=8/b-adapt=2/b-pyramid/bframe-bias=0/rc-lookahead=25/lookahead-slices=4/scenecut=40/radl=0/no-intra-refresh/ctu=64/min-cu-size=8/rect/no-amp/max-tu-size=32/tu-inter-depth=1/tu-intra-depth=1/limit-tu=0/rdoq-level=2/dynamic-rd=0.00/no-ssim-rd/signhide/no-tskip/nr-intra=0/nr-inter=0/no-constrained-intra/strong-intra-smoothing/max-merge=3/limit-refs=3/limit-modes/me=3/subme=3/merange=57/temporal-mvp/weightp/no-weightb/no-analyze-src-pics/deblock=0: 0/sao/no-sao-non-deblock/rd=4/no-early-skip/rskip/no-fast-intra/no-tskip-fast/no-cu-lossless/no-b-intra/no-splitrd-skip/rdpenalty=0/psy-rd=2.00/psy-rdoq=1.00/no-rd-refine/no-lossless/cbqpoffs=0/crqpoffs=0/rc=abr/bitrate=11000/qcomp=0.60/qpstep=4/stats-write=0/stats-read=2/cplxblur=20.0/qblur=0.5/ipratio=1.40/pbratio=1.30/aq-mode=3/aq-strength=1.00/cutree/zone-count=0/no-strict-cbr/qg-size=32/no-rc-grain/qpmax=69/qpmin=0/no-const-vbv/sar=0/overscan=0/videoformat=5/range=0/colorprim=9/transfer=16/colormatrix=9/chromaloc=0/display-window=0/master-display=G(13250, 34500)B(7500, 3000)R(34000, 16000)WP(15635, 16450)L(10000000, 50)/max-cll=1000, 131/min-luma=0/max-luma=1023/log2-max-poc-lsb=8/vui-timing-info/vui-hrd-info/slices=1/no-opt-qp-pps/no-opt-ref-list-length-pps/no-multi-pass-opt-rps/scenecut-bias=0.05/no-opt-cu-delta-qp/aq-motion/hdr/hdr-opt/no-dhdr10-opt/no-idr-recovery-sei/analysis-reuse-level=5/scale-factor=0/refine-intra=0/refine-inter=0/refine-mv=0/no-limit-sao/ctu-info=0/no-lowpass-dct/refine-mv-type=0/copy-pic=1/max-ausize-factor=1.0/no-dynamic-refine/no-single-sei
    Default : Да
    Forced : Нет
    Color range : Limited
    Основные цвета : BT.2020
    Характеристики трансфера : SMPTE ST 2084
    Коэффициенты матрицы : BT.2020 non-constant
    Mastering display color primaries : R: x=0.680000 y=0.320000, G: x=0.265000 y=0.690000, B: x=0.150000 y=0.060000, White point: x=0.312700 y=0.329000
    Mastering display luminance : min: 0.0050 cd/m2, max: 1000.0000 cd/m2
    Maximum Content Light Level : 1000 cd/m2
    Maximum Frame-Average Light Level : 131 cd/m2
    Аудио #1
    Идентификатор : 2
    Формат : AAC
    Формат/Информация : Advanced Audio Codec
    Профиль формата : LC
    Идентификатор кодека : A_AAC
    Продолжительность : 1 ч. 57 м.
    Битрейт : 601 Кбит/сек
    Каналы : 8 каналов
    Расположение каналов : Front: L C R, Side: L R, Back: L R, LFE
    Частота : 48, 0 КГц
    Частота кадров : 46, 875 кадров/сек (1024 SPF)
    Метод сжатия : С потерями
    Задержка видео : 20 мс.
    Размер потока : 503 Мбайт (3%)
    Язык : English
    Default : Нет
    Forced : Нет
    Аудио #2
    Идентификатор : 4
    Формат : AC-3
    Формат/Информация : Audio Coding 3
    Параметр Endianness формата : Big
    Идентификатор кодека : A_AC3
    Продолжительность : 1 ч. 56 м.
    Вид битрейта : Постоянный
    Битрейт : 384 Кбит/сек
    Каналы : 6 каналов
    Расположение каналов : Front: L C R, Side: L R, LFE
    Частота : 48, 0 КГц
    Частота кадров : 31, 250 кадров/сек (1536 SPF)
    Битовая глубина : 16 бит
    Метод сжатия : С потерями
    Задержка видео : 24 с. 152 мс.
    Размер потока : 321 Мбайт (2%)
    Заголовок : Перевод: профессиональный дублированный
    Язык : Russian
    Service kind : Complete Main
    Default : Да
    Forced : Нет
    Аудио #3
    Идентификатор : 5
    Формат : AC-3
    Формат/Информация : Audio Coding 3
    Параметр Endianness формата : Big
    Идентификатор кодека : A_AC3
    Продолжительность : 1 ч. 56 м.
    Вид битрейта : Постоянный
    Битрейт : 640 Кбит/сек
    Каналы : 2 канала
    Расположение каналов : Front: L R
    Частота : 48, 0 КГц
    Частота кадров : 31, 250 кадров/сек (1536 SPF)
    Битовая глубина : 16 бит
    Метод сжатия : С потерями
    Задержка видео : 24 с. 152 мс.
    Размер потока : 535 Мбайт (4%)
    Заголовок : Перевод: профессиональный многоголосый закадровый (Первый канал)
    Язык : Russian
    Service kind : Complete Main
    Default : Нет
    Forced : Нет
    Аудио #4
    Идентификатор : 6
    Формат : AC-3
    Формат/Информация : Audio Coding 3
    Параметр Endianness формата : Big
    Идентификатор кодека : A_AC3
    Продолжительность : 1 ч. 56 м.
    Вид битрейта : Постоянный
    Битрейт : 448 Кбит/сек
    Каналы : 6 каналов
    Расположение каналов : Front: L C R, Side: L R, LFE
    Частота : 48, 0 КГц
    Частота кадров : 31, 250 кадров/сек (1536 SPF)
    Битовая глубина : 16 бит
    Метод сжатия : С потерями
    Задержка видео : 24 с. 152 мс.
    Размер потока : 374 Мбайт (2%)
    Заголовок : Перевод: профессиональный многоголосый закадровый (Киномания)
    Язык : Russian
    Service kind : Complete Main
    Default : Нет
    Forced : Нет
    Аудио #5
    Идентификатор : 7
    Формат : AC-3
    Формат/Информация : Audio Coding 3
    Параметр Endianness формата : Big
    Идентификатор кодека : A_AC3
    Продолжительность : 1 ч. 56 м.
    Вид битрейта : Постоянный
    Битрейт : 448 Кбит/сек
    Каналы : 6 каналов
    Расположение каналов : Front: L C R, Side: L R, LFE
    Частота : 48, 0 КГц
    Частота кадров : 31, 250 кадров/сек (1536 SPF)
    Битовая глубина : 16 бит
    Метод сжатия : С потерями
    Задержка видео : 24 с. 152 мс.
    Размер потока : 373 Мбайт (2%)
    Заголовок : Перевод: профессиональный двухголосый закадровый (D2Lab)
    Язык : Russian
    Service kind : Complete Main
    Default : Нет
    Forced : Нет
    Аудио #6
    Идентификатор : 8
    Формат : AC-3
    Формат/Информация : Audio Coding 3
    Параметр Endianness формата : Big
    Идентификатор кодека : A_AC3
    Продолжительность : 1 ч. 56 м.
    Вид битрейта : Постоянный
    Битрейт : 640 Кбит/сек
    Каналы : 6 каналов
    Расположение каналов : Front: L C R, Side: L R, LFE
    Частота : 48, 0 КГц
    Частота кадров : 31, 250 кадров/сек (1536 SPF)
    Битовая глубина : 16 бит
    Метод сжатия : С потерями
    Задержка видео : 24 с. 152 мс.
    Размер потока : 535 Мбайт (4%)
    Заголовок : Перевод: авторский одноголосный закадровый (Леонид Володарский), ненормативная лексика
    Язык : Russian
    Service kind : Complete Main
    Default : Нет
    Forced : Нет
    Аудио #7
    Идентификатор : 9
    Формат : AC-3
    Формат/Информация : Audio Coding 3
    Параметр Endianness формата : Big
    Идентификатор кодека : A_AC3
    Продолжительность : 1 ч. 56 м.
    Вид битрейта : Постоянный
    Битрейт : 640 Кбит/сек
    Каналы : 6 каналов
    Расположение каналов : Front: L C R, Side: L R, LFE
    Частота : 48, 0 КГц
    Частота кадров : 31, 250 кадров/сек (1536 SPF)
    Битовая глубина : 16 бит
    Метод сжатия : С потерями
    Задержка видео : 24 с. 152 мс.
    Размер потока : 535 Мбайт (4%)
    Заголовок : Перевод: авторский одноголосный закадровый (Андрей Гаврилов)
    Язык : Russian
    Service kind : Complete Main
    Default : Нет
    Forced : Нет
    Аудио #8
    Идентификатор : 10
    Формат : AC-3
    Формат/Информация : Audio Coding 3
    Параметр Endianness формата : Big
    Идентификатор кодека : A_AC3
    Продолжительность : 1 ч. 56 м.
    Вид битрейта : Постоянный
    Битрейт : 192 Кбит/сек
    Каналы : 2 канала
    Расположение каналов : Front: L R
    Частота : 48, 0 КГц
    Частота кадров : 31, 250 кадров/сек (1536 SPF)
    Битовая глубина : 16 бит
    Метод сжатия : С потерями
    Задержка видео : 24 с. 152 мс.
    Размер потока : 160 Мбайт (1%)
    Заголовок : Перевод: авторский одноголосный закадровый (Василий Горчаков)
    Язык : Russian
    Service kind : Complete Main
    Default : Нет
    Forced : Нет
    Аудио #9
    Идентификатор : 11
    Формат : AC-3
    Формат/Информация : Audio Coding 3
    Параметр Endianness формата : Big
    Идентификатор кодека : A_AC3
    Продолжительность : 1 ч. 56 м.
    Вид битрейта : Постоянный
    Битрейт : 640 Кбит/сек
    Каналы : 6 каналов
    Расположение каналов : Front: L C R, Side: L R, LFE
    Частота : 48, 0 КГц
    Частота кадров : 31, 250 кадров/сек (1536 SPF)
    Битовая глубина : 16 бит
    Метод сжатия : С потерями
    Задержка видео : 24 с. 152 мс.
    Размер потока : 535 Мбайт (4%)
    Заголовок : Перевод: авторский одноголосный закадровый (Юрий Живов)
    Язык : Russian
    Service kind : Complete Main
    Default : Нет
    Forced : Нет
    Аудио #10
    Идентификатор : 12
    Формат : AC-3
    Формат/Информация : Audio Coding 3
    Параметр Endianness формата : Big
    Идентификатор кодека : A_AC3
    Продолжительность : 1 ч. 56 м.
    Вид битрейта : Постоянный
    Битрейт : 640 Кбит/сек
    Каналы : 6 каналов
    Расположение каналов : Front: L C R, Side: L R, LFE
    Частота : 48, 0 КГц
    Частота кадров : 31, 250 кадров/сек (1536 SPF)
    Битовая глубина : 16 бит
    Метод сжатия : С потерями
    Задержка видео : 24 с. 152 мс.
    Размер потока : 535 Мбайт (4%)
    Заголовок : Перевод: авторский одноголосный закадровый (Александр Кашкин)
    Язык : Russian
    Service kind : Complete Main
    Default : Нет
    Forced : Нет
    Аудио #11
    Идентификатор : 13
    Формат : AC-3
    Формат/Информация : Audio Coding 3
    Параметр Endianness формата : Big
    Идентификатор кодека : A_AC3
    Продолжительность : 1 ч. 56 м.
    Вид битрейта : Постоянный
    Битрейт : 640 Кбит/сек
    Каналы : 6 каналов
    Расположение каналов : Front: L C R, Side: L R, LFE
    Частота : 48, 0 КГц
    Частота кадров : 31, 250 кадров/сек (1536 SPF)
    Битовая глубина : 16 бит
    Метод сжатия : С потерями
    Задержка видео : 24 с. 152 мс.
    Размер потока : 536 Мбайт (4%)
    Заголовок : Перевод: авторский одноголосный закадровый (Дмитрий Goblin Пучков) (поздний), ненормативная лексика
    Язык : Russian
    Service kind : Complete Main
    Default : Нет
    Forced : Нет
    Аудио #12
    Идентификатор : 14
    Формат : AC-3
    Формат/Информация : Audio Coding 3
    Параметр Endianness формата : Big
    Идентификатор кодека : A_AC3
    Продолжительность : 1 ч. 56 м.
    Вид битрейта : Постоянный
    Битрейт : 640 Кбит/сек
    Каналы : 6 каналов
    Расположение каналов : Front: L C R, Side: L R, LFE
    Частота : 48, 0 КГц
    Частота кадров : 31, 250 кадров/сек (1536 SPF)
    Битовая глубина : 16 бит
    Метод сжатия : С потерями
    Задержка видео : 24 с. 152 мс.
    Размер потока : 535 Мбайт (4%)
    Заголовок : Перевод: авторский одноголосный закадровый (Юрий Сербин), ненормативная лексика
    Язык : Russian
    Service kind : Complete Main
    Default : Нет
    Forced : Нет
    Аудио #13
    Идентификатор : 15
    Формат : AC-3
    Формат/Информация : Audio Coding 3
    Параметр Endianness формата : Big
    Идентификатор кодека : A_AC3
    Продолжительность : 1 ч. 56 м.
    Вид битрейта : Постоянный
    Битрейт : 640 Кбит/сек
    Каналы : 6 каналов
    Расположение каналов : Front: L C R, Side: L R, LFE
    Частота : 48, 0 КГц
    Частота кадров : 31, 250 кадров/сек (1536 SPF)
    Битовая глубина : 16 бит
    Метод сжатия : С потерями
    Задержка видео : 24 с. 152 мс.
    Размер потока : 535 Мбайт (4%)
    Заголовок : Перевод: одноголосный закадровый (Эдуард Шиндяпин)
    Язык : Russian
    Service kind : Complete Main
    Default : Нет
    Forced : Нет
    Текст #1
    Идентификатор : 3
    Формат : VobSub
    Режим смешивания : zlib
    Идентификатор кодека : S_VOBSUB
    Идентификатор кодека/Информация : Picture based subtitle format used on DVDs
    Продолжительность : 1 ч. 56 м.
    Битрейт : 15, 3 Кбит/сек
    Count of elements : 2032
    Размер потока : 12, 7 Мбайт (0%)
    Язык : English
    Default : Нет
    Forced : Нет
    Текст #2
    Идентификатор : 16
    Формат : UTF-8
    Идентификатор кодека : S_TEXT/UTF8
    Идентификатор кодека/Информация : UTF-8 Plain Text
    Продолжительность : 1 ч. 51 м.
    Битрейт : 103 бит/сек
    Count of elements : 1003
    Размер потока : 85, 0 Кбайт (0%)
    Заголовок : RUS Амальгама SRT (с Дюдей)
    Язык : Russian
    Default : Нет
    Forced : Нет
    Текст #3
    Идентификатор : 17
    Формат : UTF-8
    Идентификатор кодека : S_TEXT/UTF8
    Идентификатор кодека/Информация : UTF-8 Plain Text
    Продолжительность : 1 ч. 51 м.
    Битрейт : 113 бит/сек
    Count of elements : 1595
    Размер потока : 93, 0 Кбайт (0%)
    Заголовок : RUS D2Lab SRT
    Язык : Russian
    Default : Нет
    Forced : Нет
    Текст #4
    Идентификатор : 18
    Формат : UTF-8
    Идентификатор кодека : S_TEXT/UTF8
    Идентификатор кодека/Информация : UTF-8 Plain Text
    Продолжительность : 1 ч. 51 м.
    Битрейт : 121 бит/сек
    Count of elements : 1623
    Размер потока : 99, 4 Кбайт (0%)
    Заголовок : RUS Д.Пучков SRT
    Язык : Russian
    Default : Нет
    Forced : Нет
    Текст #5
    Идентификатор : 19
    Формат : UTF-8
    Идентификатор кодека : S_TEXT/UTF8
    Идентификатор кодека/Информация : UTF-8 Plain Text
    Продолжительность : 1 ч. 51 м.
    Битрейт : 132 бит/сек
    Count of elements : 2184
    Размер потока : 109 Кбайт (0%)
    Заголовок : RUS А.Мишов SRT
    Язык : Russian
    Default : Нет
    Forced : Нет
    Текст #6
    Идентификатор : 20
    Формат : UTF-8
    Идентификатор кодека : S_TEXT/UTF8
    Идентификатор кодека/Информация : UTF-8 Plain Text
    Продолжительность : 1 ч. 52 м.
    Битрейт : 122 бит/сек
    Count of elements : 2287
    Размер потока : 101 Кбайт (0%)
    Заголовок : RUS Shmuckler SRT
    Язык : Russian
    Default : Нет
    Forced : Нет
    Меню
    00: 00: 00.000 : en: Tumbling Tumbleweed
    00: 03: 20.909 : en: Mistaken Identity
    00: 05: 13.104 : en: Opening Credits
    00: 07: 15.160 : en: The Rug
    00: 09: 38.119 : en: The Other Lebowski
    00: 16: 03.588 : en: Over the Line
    00: 19: 37.593 : en: A Kidnapped Bunny
    00: 24: 39.520 : en: Jesus
    00: 29: 03.784 : en: The Ringer
    00: 36: 54.796 : en: Stolen Car
    00: 42: 14.490 : en: Maude
    00: 47: 48.199 : en: Bunny\'s Toe
    00: 54: 10.372 : en: A Visit From the Stranger
    01: 01: 16.172 : en: The Dude\'s Check-Up
    01: 06: 34.991 : en: A Stellar Performance
    01: 13: 20.479 : en: Smut Business
    01: 20: 04.008 : en: The Gutterballs
    01: 25: 40.802 : en: Chances of Conception
    01: 39: 08.317 : en: Day of Rest
    01: 44: 04.029 : en: Ashes to Ashes
    01: 48: 55.738 : en: The Dude Abides
    01: 52: 11.767 : en: End Credits
    XMP
    Xmp.video.FileName : E: VideoБольшой Лебовски (The Big Lebowski).mkv
    Xmp.video.FileSize : -9.53674e-007
    Xmp.video.MimeType : video/matroska
    Xmp.video.EBMLVersion : 1
    Xmp.video.EBMLReadVersion : 1
    Xmp.video.DocType : matroska
    Xmp.video.DocTypeVersion : 4
    Xmp.video.DocTypeReadVersion : 2
    Xmp.video.TimecodeScale : 0.001
    Xmp.video.MuxingApp : libebml v1.3.7 + libmatroska v1.5.0
    Xmp.video.WritingApp : mkvmerge v34.0.0 (\'Sight and Seen\') 64-bit
    Xmp.video.Duration : 7043160
    Xmp.video.DateUTC : 593775022
    Xmp.video.Title : БоРьшой Лебовски/The Big Lebowski
    Xmp.video.TotalStream : 40
    Xmp.video.TrackLacing : No
    Xmp.video.Codec : V_MPEGH/ISO/HEVC
    Xmp.video.FrameRate : 23.976
    Xmp.video.TrackLang : und
    Xmp.video.TrackName : RUS Shmuckler SRT
    Xmp.video.Width : 3840
    Xmp.video.Height : 2076
    Xmp.audio.DefaultOn : No
    Xmp.audio.Compressor : A_AC3
    Xmp.audio.DefaultDuration : 32000
    Xmp.audio.SampleRate : 48000
    Xmp.video.SubTDefaultOn : No
    Xmp.video.SubTTrackLacing : No
    Xmp.video.SubTCodec : S_TEXT/UTF8
    Xmp.audio.TrackLang : rus
    Xmp.audio.ChannelType : Stereo
    Xmp.video.SubTLang : rus
    Xmp.video.AttachFileName : cover.png
    Xmp.video.AttachFileMIME : image/png
    Xmp.video.AttachFileUID : -4868783016011451975
    Xmp.video.AttachFileDesc : BD Cover
    Xmp.video.AspectRatio : 1.8
    H.265/HEVC (High Efficiency Video Coding) - это новый стандарт кодирования видео.
    *Рипы в фомате HEVC, в настоящее время поддерживается не всеми аппаратными проигрывателями.
    *Для корректного воспроизведения может потребоваться обновление ПО.
    *Стандарт H.265/HEVC является логическим продолжением стандарта H.264/AVC (Advanced Video Coding), и характеризуется более эффективными алгоритмами сжатия, а также поддержкой высокого разрешения вплоть до 8K UHD (8192x4320). Первая версия стандарта H.265 была опубликована в начале 2013 года.
    Любителям решения из коробки - установить последнюю версию на выбор:
    Media Player Classic - Black Edition (MPC-BE)
    VLC media player
    Daum Pot Player
    GOM Media Player
    Любителям WMP и других плееров, использующих по умолчанию для воспроизведения системные кодеки+сплитеры - установить K-Lite Codec Pack версии 10.1.0 и выше.
    Любимые плееры, не использующии по умолчанию для воспроизведения системные кодеки+сплитеры, нужно перенастроить на использование оных.Просмотр 4K HDR-контента на ПК

    Скриншоты для ознакомления





    Все одноименные релизы в Клубе
    Время раздачи: с 11: 00 до 21: 00 по Новосибирску (UTC +7) (до появления первых 3-5 скачавших)

    Онлайн видео Большой Лебовски



    Большой Лебовски/The Big Lebowski (1998) UHD BDRip [H.265/2160p-LQ] [4K, HDR, 10-bit]
    Рейтинг →
     (голосов: 1, оценка 3/5, голосовать можно 1 раз )

    Другие торренты по теме:

  • Большой Лебовски / The Big Lebowski (1998) BDRip [h.264]
  • Большой Лебовски / The Big Lebowski (1998) BDRip [H.264 / 1080p] скачать через торрент бесплатно
  • Большой Лебовски - Любовь (2018) [MP3|320 Kbps] <Grunge Blues Rock>
  • Большой Лебовски / The Big Lebowski (1998) UHD BDRemux [H.265 / 2160p] [4K, HDR, 10-bit]
  • Большой Лебовски / The Big Lebowski (1998) HDDVDRip [H.264 / 1080p] [PR]


    • Комментарии (0):

      Информация

      Информация

        Посетители, находящиеся в группе Гости, не могут оставлять комментарии в данной новости.

        ↓ Меню




        ↓ Опрос

        Вы добавили сайт в закладки?
        Да
        Нет


        Популярное