.
Авторизация | Регистрация

bitok.xyz

» » 6 дней / 6 Days (2017) BDRemux [H.264 / 1080p] торрент скачать бесплатно


    6 дней / 6 Days (2017) BDRemux [H.264 / 1080p] торрент скачать бесплатно

    Дата: 28-10-2019, 05:00 | .torrent скачали: 0

    6 дней / 6 Days (2017) BDRemux [H.264 / 1080p]Производство: Новая Зеландия, Великобритания, General Film Corporation
    Жанр: Боевик, триллер, драма, история
    Режиссер: Тоа Фрейзер

    Актеры
    Джейми Белл, Марк Стронг, Эбби Корниш, Мартин Шоу, Бен Тернер, Иман Эллиотт, Аймен Хамдуши, Эндрю Грэйнджер, Колин Гарлик, Te Kohe Tuhaka

    Описание

    В 1980 году по Лондону молниеносно разлетелась новость о террористической атаке, направленной на иранское посольство. Все началось с того, что группа неизвестных ворвалась в здание посольства и взяла в плен всех его сотрудников. Власти пытались договориться с террористами, однако их требования были невыполнимыми. Руководство спецназа приняло решение взять штурмом здание, несмотря на то, что могли появиться жертвы среди гражданского населения. Ситуация обострялась тем, что здание посольства было хорошо укреплено, и это мешало солдатам быстро достигать поставленных целей.

    Возраст: 16+ (зрителям, достигшим 16 лет)
    Рейтинг MPAA: R (лицам до 17 лет обязательно присутствие взрослого)
    Релиз от: mike7025
    Продолжительность: 01: 34: 34
    Качество видео: BDRemux
    Перевод: Многоголосый профессиональный, многоголосый любительский
    Субтитры: Английские
    Видео: AVC/H.264, 1920x1080, ~24.8 Mbps
    Аудио 1: AC3, 6 ch, 384 Kbps - Русский (MVO, iTunes)
    Аудио 2: AC3, 2 ch, 256 Kbps - Русский (MVO, AvePremier)
    Аудио 3: DTS-HD MA, 6 ch, 3529 Kbps - Английский
    General
    Unique ID : 203098030691814483923627322468765617496 (0x98CB42057140B84A8173E57961D14D58)
    Complete name : G: 6.Days.2017.REMUX.mkv
    Format : Matroska
    Format version : Version 4/Version 2
    File size : 19.1 GiB
    Duration : 1 h 34 min
    Overall bit rate mode : Variable
    Overall bit rate : 29.0 Mb/s
    Encoded date : UTC 2019-10-27 01: 27: 26
    Writing application : mkvmerge v20.0.0 (\'I Am The Sun\') 64-bit
    Writing library : libebml v1.3.5 + libmatroska v1.4.8
    Video
    ID : 1
    Format : AVC
    Format/Info : Advanced Video Codec
    Format profile : High@L4.1
    Format settings : CABAC/4 Ref Frames
    Format settings, CABAC : Yes
    Format settings, RefFrames : 4 frames
    Codec ID : V_MPEG4/ISO/AVC
    Duration : 1 h 34 min
    Bit rate mode : Variable
    Bit rate : 24.8 Mb/s
    Maximum bit rate : 35.0 Mb/s
    Width : 1 920 pixels
    Height : 1 080 pixels
    Display aspect ratio : 16: 9
    Frame rate mode : Constant
    Frame rate : 23.976 (24000/1001) FPS
    Standard : NTSC
    Color space : YUV
    Chroma subsampling : 4: 2: 0
    Bit depth : 8 bits
    Scan type : Progressive
    Bits/(Pixel*Frame) : 0.499
    Stream size : 16.4 GiB (86%)
    Language : English
    Default : Yes
    Forced : No
    Color range : Limited
    Color primaries : BT.709
    Transfer characteristics : BT.709
    Matrix coefficients : BT.709
    Audio #1
    ID : 2
    Format : AC-3
    Format/Info : Audio Coding 3
    Codec ID : A_AC3
    Duration : 1 h 34 min
    Bit rate mode : Constant
    Bit rate : 384 kb/s
    Channel(s) : 6 channels
    Channel positions : Front: L C R, Side: L R, LFE
    Sampling rate : 48.0 kHz
    Frame rate : 31.250 FPS (1536 SPF)
    Bit depth : 16 bits
    Compression mode : Lossy
    Stream size : 260 MiB (1%)
    Title : MVO iTunes
    Language : Russian
    Service kind : Complete Main
    Default : Yes
    Forced : No
    Audio #2
    ID : 3
    Format : AC-3
    Format/Info : Audio Coding 3
    Codec ID : A_AC3
    Duration : 1 h 34 min
    Bit rate mode : Constant
    Bit rate : 256 kb/s
    Channel(s) : 2 channels
    Channel positions : Front: L R
    Sampling rate : 48.0 kHz
    Frame rate : 31.250 FPS (1536 SPF)
    Bit depth : 16 bits
    Compression mode : Lossy
    Stream size : 173 MiB (1%)
    Title : MVO AvePremier
    Language : Russian
    Service kind : Complete Main
    Default : No
    Forced : No
    Audio #3
    ID : 4
    Format : DTS
    Format/Info : Digital Theater Systems
    Format profile : MA/Core
    Codec ID : A_DTS
    Duration : 1 h 34 min
    Bit rate mode : Variable/Constant
    Bit rate : 3 529 kb/s/1 509 kb/s
    Channel(s) : 6 channels
    Channel positions : Front: L C R, Side: L R, LFE
    Sampling rate : 48.0 kHz
    Frame rate : 93.750 FPS (512 SPF)
    Bit depth : 24 bits
    Compression mode : Lossless/Lossy
    Stream size : 2.33 GiB (12%)
    Language : English
    Default : No
    Forced : No
    Text
    ID : 5
    Format : UTF-8
    Codec ID : S_TEXT/UTF8
    Codec ID/Info : UTF-8 Plain Text
    Duration : 1 h 27 min
    Bit rate : 54 b/s
    Count of elements : 881
    Stream size : 35.1 KiB (0%)
    Language : English
    Default : No
    Forced : No
    Menu
    00: 00: 00.000 : en: Chapter 1
    00: 05: 53.436 : en: Chapter 2
    00: 11: 55.757 : en: Chapter 3
    00: 17: 58.577 : en: Chapter 4
    00: 24: 04.860 : en: Chapter 5
    00: 30: 02.175 : en: Chapter 6
    00: 36: 44.327 : en: Chapter 7
    00: 41: 56.139 : en: Chapter 8
    00: 48: 57.726 : en: Chapter 9
    00: 54: 16.503 : en: Chapter 10
    01: 00: 52.148 : en: Chapter 11
    01: 06: 29.319 : en: Chapter 12
    01: 12: 07.448 : en: Chapter 13
    01: 17: 54.336 : en: Chapter 14
    01: 24: 07.376 : en: Chapter 15
    01: 30: 12.073 : en: Chapter 16

    Скриншоты для ознакомления




    Все одноименные релизы в Клубе
    Время раздачи: 24/7 (до появления первых 3-5 скачавших)

    Онлайн видео 6 дней



    6 дней/6 Days (2017) BDRemux [H.264/1080p]
    Рейтинг →
     (голосов: 1, оценка 5/5, голосовать можно 1 раз )

    Другие торренты по теме:

  • 28 дней спустя + 28 недель спустя / 28 Days Later + 28 Weeks Later (2002,2007) BDRip [H.264]
  • 20 000 дней на Земле / 20 000 Days on Earth (2014) BDRip скачать через торрент бесплатно
  • 40 дней и ночей / 40 Days and Nights (2012) BDRip [H.264 / 1080p] скачать через торрент бесплатно
  • 7 дней в аду / 7 Days in Hell (2015) HDTV [H.264 / 1080i] скачать через торрент бесплатно
  • 7 дней в аду / 7 Days in Hell (2015) HDTVRip [H.264 / 720p-LQ] скачать через торрент бесплатно
  • Шесть дней, Семь ночей / Six Days Seven Nights (1998) DVD5 скачать через торрент бесплатно
  • 30 дней ночи / 30 Days of Night (2007) BDRip [H.264 / 1080p] скачать через торрент бесплатно
  • Тысяча дней Анны / Anne of the Thousand Days (1969) BDRip [H.264] скачать через торрент бесплатно


    • Комментарии (0):

      Информация

      Информация

        Посетители, находящиеся в группе Гости, не могут оставлять комментарии в данной новости.

        ↓ Меню




        ↓ Опрос

        Вы добавили сайт в закладки?
        Да
        Нет


        Популярное