.
Авторизация | Регистрация

bitok.xyz

» » Призрак и Тьма / The Ghost and the Darkness (1996) BDRemux [H.264 / 1080p] торрент скачать бесплатно


    Призрак и Тьма / The Ghost and the Darkness (1996) BDRemux [H.264 / 1080p] торрент скачать бесплатно

    Дата: 28-10-2019, 05:00 | .torrent скачали: 0

    Призрак и Тьма / The Ghost and the Darkness (1996) BDRemux [H.264 / 1080p]Производство: Германия, США/Paramount Pictures, Constellation Entertainment, Douglas/Reuther Productions, Bernina Film, Mont Blanc Entertainment GmbH
    Жанр: Триллер, драма, приключения
    Режиссер: Стивен Хопкинс

    Актеры
    Майкл Дуглас, Вэл Килмер, Том Уилкинсон, Джон Кахи, Бернард Хилл, Брайан МакКарди, Эмили Мортимер, Ом Пури, Генри Селе, Курт Эгельхоф

    Описание

    1898 год. Лондон. Молодой строитель полковник Джон Паттерсон получает срочное задание построить мост через реку в африканской провинции Цаво. Всю жизнь мечтавший о путешествии в Африку, Паттерсон, оставив беременную жену, спешит к месту работ. На месте его ожидает целая армия рабочих.
    Несмотря на разницу вероисповеданий, всех их объединяет один общий страх перед объявившимися в этих краях львами-людоедами. В первый же день пребывания Паттерсона на африканской земле лев покалечил одного из индусов. Устроив засаду, Джон застрелил льва к огромной радости всего рабочего люда. Строительство продвигалось успешно до того момента, пока вдруг снова не стали погибать рабочие.

    Возраст: 16+ (зрителям, достигшим 16 лет)
    Рейтинг MPAA: R (лицам до 17 лет обязательно присутствие взрослого)
    Продолжительность: 01: 50: 00
    Качество видео: BDRemux 1080р
    Перевод: Многоголосый профессиональный, двухголосый профессиональный, авторский
    Субтитры: Русские, английские
    Видео: AVC/H.264, 1920х1080, ~29.9 Мbps
    Аудио: AC3, 6 ch, 448 Kbps - Русский (MVO, Гемини Фильм)
    Аудио: AC3, 6 ch, 448 Kbps - Русский (DVO, Лазер Видео)
    Аудио: AC3, 2 ch, 192 Kbps - Русский (DVO, OPT)
    Аудио: AC3, 2 ch, 192 Kbps - Русский (AVO, В.Горчаков)
    Аудио: AC3, 6 ch, 384 Kbps - Aнглийский
    Уникальный идентификатор : 35701825692548606246758802730094481152 (0x1ADBEBE88AB7C71135C9CCE1EAB8CF00)
    Полное имя : E: The.Ghost.and.the.Darkness.1996.BDRemux.mkv
    Формат : Matroska
    Версия формата : Version 4
    Размер файла : 24, 3 Гбайт
    Продолжительность : 1 ч. 49 м.
    Режим общего битрейта : Переменный
    Общий поток : 31, 6 Мбит/сек
    Дата кодирования : UTC 2019-10-26 12: 31: 21
    Программа кодирования : mkvmerge v37.0.0 (\'Leave It\') 64-bit
    Библиотека кодирования : libebml v1.3.9 + libmatroska v1.5.2
    Обложка : Yes
    Attachments : cover.png
    Видео
    Идентификатор : 1
    Формат : AVC
    Формат/Информация : Advanced Video Codec
    Профиль формата : High@L4.1
    Настройки формата : CABAC/3 Ref Frames
    Параметр CABAC формата : Да
    Параметр RefFrames формата : 3 кадра
    Идентификатор кодека : V_MPEG4/ISO/AVC
    Продолжительность : 1 ч. 49 м.
    Вид битрейта : Переменный
    Битрейт : 29, 9 Мбит/сек
    Максимальный битрейт : 35, 0 Мбит/сек
    Ширина : 1920 пикселей
    Высота : 1080 пикселей
    Соотношение сторон : 16: 9
    Режим частоты кадров : Постоянный
    Частота кадров : 23, 976 (24000/1001) кадра/сек
    Цветовое пространство : YUV
    Субдискретизация насыщенности : 4: 2: 0
    Битовая глубина : 8 бит
    Тип развёртки : Прогрессивная
    Бит/(Пиксели*Кадры) : 0.602
    Размер потока : 23, 0 Гбайт (95%)
    Язык : English
    Default : Да
    Forced : Нет
    Аудио #1
    Идентификатор : 2
    Формат : AC-3
    Формат/Информация : Audio Coding 3
    Коммерческое название : Dolby Digital
    Идентификатор кодека : A_AC3
    Продолжительность : 1 ч. 49 м.
    Вид битрейта : Постоянный
    Битрейт : 448 Кбит/сек
    Каналы : 6 каналов
    ChannelLayout : L R C LFE Ls Rs
    Частота : 48, 0 КГц
    Частота кадров : 31, 250 кадров/сек (1536 SPF)
    Метод сжатия : С потерями
    Размер потока : 352 Мбайт (1%)
    Заголовок : Гемини Фильм
    Язык : Russian
    ServiceKind/String : Complete Main
    Default : Да
    Forced : Нет
    Аудио #2
    Идентификатор : 3
    Формат : AC-3
    Формат/Информация : Audio Coding 3
    Коммерческое название : Dolby Digital
    Идентификатор кодека : A_AC3
    Продолжительность : 1 ч. 49 м.
    Вид битрейта : Постоянный
    Битрейт : 448 Кбит/сек
    Каналы : 6 каналов
    ChannelLayout : L R C LFE Ls Rs
    Частота : 48, 0 КГц
    Частота кадров : 31, 250 кадров/сек (1536 SPF)
    Метод сжатия : С потерями
    Размер потока : 352 Мбайт (1%)
    Заголовок : Лазер Видео
    Язык : Russian
    ServiceKind/String : Complete Main
    Default : Нет
    Forced : Нет
    Аудио #3
    Идентификатор : 4
    Формат : AC-3
    Формат/Информация : Audio Coding 3
    Коммерческое название : Dolby Digital
    Идентификатор кодека : A_AC3
    Продолжительность : 1 ч. 49 м.
    Вид битрейта : Постоянный
    Битрейт : 192 Кбит/сек
    Каналы : 2 канала
    ChannelLayout : L R
    Частота : 48, 0 КГц
    Частота кадров : 31, 250 кадров/сек (1536 SPF)
    Метод сжатия : С потерями
    Размер потока : 151 Мбайт (1%)
    Заголовок : OPT
    Язык : Russian
    ServiceKind/String : Complete Main
    Default : Нет
    Forced : Нет
    Аудио #4
    Идентификатор : 5
    Формат : AC-3
    Формат/Информация : Audio Coding 3
    Коммерческое название : Dolby Digital
    Идентификатор кодека : A_AC3
    Продолжительность : 1 ч. 49 м.
    Вид битрейта : Постоянный
    Битрейт : 192 Кбит/сек
    Каналы : 2 канала
    ChannelLayout : L R
    Частота : 48, 0 КГц
    Частота кадров : 31, 250 кадров/сек (1536 SPF)
    Метод сжатия : С потерями
    Размер потока : 151 Мбайт (1%)
    Заголовок : В.Горчаков
    Язык : Russian
    ServiceKind/String : Complete Main
    Default : Нет
    Forced : Нет
    Аудио #5
    Идентификатор : 6
    Формат : AC-3
    Формат/Информация : Audio Coding 3
    Коммерческое название : Dolby Digital
    Идентификатор кодека : A_AC3
    Продолжительность : 1 ч. 49 м.
    Вид битрейта : Постоянный
    Битрейт : 384 Кбит/сек
    Каналы : 6 каналов
    ChannelLayout : L R C LFE Ls Rs
    Частота : 48, 0 КГц
    Частота кадров : 31, 250 кадров/сек (1536 SPF)
    Метод сжатия : С потерями
    Размер потока : 302 Мбайт (1%)
    Заголовок : Оригинал
    Язык : English
    ServiceKind/String : Complete Main
    Default : Нет
    Forced : Нет
    Текст #1
    Идентификатор : 7
    Формат : UTF-8
    Идентификатор кодека : S_TEXT/UTF8
    Идентификатор кодека/Информация : UTF-8 Plain Text
    Продолжительность : 1 ч. 41 м.
    Битрейт : 64 бит/сек
    ElementCount : 571
    Размер потока : 48, 0 Кбайт (0%)
    Язык : Russian
    Default : Нет
    Forced : Нет
    Текст #2
    Идентификатор : 8
    Формат : UTF-8
    Идентификатор кодека : S_TEXT/UTF8
    Идентификатор кодека/Информация : UTF-8 Plain Text
    Продолжительность : 1 ч. 43 м.
    Битрейт : 49 бит/сек
    ElementCount : 731
    Размер потока : 38, 0 Кбайт (0%)
    Язык : Russian
    Default : Нет
    Forced : Нет
    Текст #3
    Идентификатор : 9
    Формат : UTF-8
    Идентификатор кодека : S_TEXT/UTF8
    Идентификатор кодека/Информация : UTF-8 Plain Text
    Продолжительность : 1 ч. 41 м.
    Битрейт : 36 бит/сек
    ElementCount : 866
    Размер потока : 27, 4 Кбайт (0%)
    Язык : English
    Default : Нет
    Forced : Нет
    Меню
    00: 00: 00.000 : : Глава 01
    00: 00: 17.176 : : Глава 02
    00: 00: 34.468 : : Глава 03
    00: 00: 42.642 : : Глава 04
    00: 03: 34.814 : : Глава 05
    00: 07: 44.063 : : Глава 06
    00: 18: 00.679 : : Глава 07
    00: 24: 20.058 : : Глава 08
    00: 28: 19.297 : : Глава 09
    00: 34: 27.665 : : Глава 10
    00: 37: 51.869 : : Глава 11
    00: 43: 26.203 : : Глава 12
    00: 48: 26.503 : : Глава 13
    00: 50: 27.624 : : Глава 14
    00: 53: 35.812 : : Глава 15
    00: 57: 27.043 : : Глава 16
    01: 06: 10.566 : : Глава 17
    01: 10: 02.798 : : Глава 18
    01: 15: 53.148 : : Глава 19
    01: 39: 59.802 : : Глава 20

    Скриншоты для ознакомления



    Все одноименные релизы в Клубе
    Время раздачи: 24/7 (до появления первых 3-5 скачавших)

    Онлайн видео Призрак и Тьма



    Призрак и Тьма/The Ghost and the Darkness (1996) BDRemux [H.264/1080p]
    Рейтинг →
     (голосов: 1, оценка 4/5, голосовать можно 1 раз )

    Другие торренты по теме:

  • Призрак и Тьма / The Ghost and the Darkness (1996) HDTVRip [H.264]скачать через торрент бесплатно
  • Призрак и Тьма / The Ghost and the Darkness (1996) WEB-DL [H.264 / 720p-LQ] скачать через торрент бесплатно
  • Призрак и Тьма / The Ghost and the Darkness (1996) BDRip [H.264 / 720p]
  • Призрак и Тьма / The Ghost and the Darkness (1996) BDRip [1080p] ATV


    • Комментарии (0):

      Информация

      Информация

        Посетители, находящиеся в группе Гости, не могут оставлять комментарии в данной новости.

        ↓ Меню




        ↓ Опрос

        Вы добавили сайт в закладки?
        Да
        Нет


        Популярное