.
Авторизация | Регистрация

bitok.xyz

» » Волк с Уолл-стрит / The Wolf of Wall Street (2013) BDRip [H.264 / 720p] [US Transfer] [PR] торрент скачать бесплатно


    Волк с Уолл-стрит / The Wolf of Wall Street (2013) BDRip [H.264 / 720p] [US Transfer] [PR] торрент скачать бесплатно

    Дата: 28-10-2019, 05:00 | .torrent скачали: 1

    Волк с Уолл-стрит / The Wolf of Wall Street (2013) BDRip [H.264 / 720p] [US Transfer] [PR]Производство: США/Red Granite Pictures, Appian Way, Sikelia Productions
    Жанр: драма, криминал, биография
    Режиссер: Мартин Скорсезе

    Актеры
    Леонардо ДиКаприо, Джона Хилл, Марго Робби, Кайл Чандлер, Роб Райнер, П.Дж. Бирн, Джон Бернтал, Кристин Милиоти, Жан Дюжарден, Мэттью МакКонахи

    Описание

    1987 год. Джордан Белфорт становится брокером в успешном инвестиционном банке. Вскоре банк закрывается после внезапного обвала индекса Доу-Джонса. По совету жены Терезы Джордан устраивается в небольшое заведение, занимающееся мелкими акциями. Его настойчивый стиль общения с клиентами и врождённая харизма быстро даёт свои плоды. Он знакомится с соседом по дому Донни, торговцем, который сразу находит общий язык с Джорданом и решает открыть с ним собственную фирму. В качестве сотрудников они нанимают нескольких друзей Белфорта, его отца Макса и называют компанию Стрэттон Оукмонт. В свободное от работы время Джордан прожигает жизнь: лавирует от одной вечеринки к другой, вступает в сексуальные отношения с проститутками, употребляет множество наркотических препаратов, в том числе кокаин и кваалюд. Однажды наступает момент, когда быстрым обогащением Белфорта начинает интересоваться агент ФБР…

    Возраст: 18+ (зрителям, достигшим 18 лет. запрещено для детей)
    Рейтинг MPAA: R (лицам до 17 лет обязательно присутствие взрослого)
    Продолжительность: 02: 59: 52
    Качество видео: BDRip
    Перевод: Дублированный, авторский
    Субтитры: русские, английские
    Видео: AVC/H.264, 1280x534, ~5471 kbps
    Аудио 1: AC3, 6 ch, 640 kbps, Русский (DUB BD RUS)
    Аудио 2: AC3, 6 ch, 640 kbps, Русский (AVO М.Чадов)(ненормативная лексика)
    Аудио 3: AC3, 6 ch, 640 kbps, Русский (AVO Ю.Немахов)(ненормативная лекика)
    Аудио 4: AC3, 6 ch, 640 kbps, Русский (AVO С.Визгунов)
    Аудио 5: AC3, 6 ch, 640 kbps, Английский
    Общее
    Уникальный идентификатор : 207494877667397071910345794178478235987 (0x9C1A0F5068250D58A64D68634E6FE153)
    Полное имя : D: FILMSVolk.s.Uoll.Strit.2013.BDRip.720p.mkv
    Формат : Matroska
    Версия формата : Version 4
    Размер файла : 10, 9 Гбайт
    Продолжительность : 2 ч. 59 м.
    Общий поток : 8672 Кбит/сек
    Название фильма : The Wolf of Wall Street (2013) - HELLYWOOD
    Дата кодирования : UTC 2019-10-25 05: 53: 35
    Программа кодирования : mkvmerge v8.2.0 (\'World of Adventure\') 64bit
    Библиотека кодирования : libebml v1.3.1 + libmatroska v1.4.2
    Видео
    Идентификатор : 1
    Формат : AVC
    Формат/Информация : Advanced Video Codec
    Профиль формата : High@L4.1
    Настройки формата : CABAC/9 Ref Frames
    Параметр CABAC формата : Да
    Параметр RefFrames формата : 9 кадров
    Идентификатор кодека : V_MPEG4/ISO/AVC
    Продолжительность : 2 ч. 59 м.
    Битрейт : 5471 Кбит/сек
    Ширина : 1280 пикселей
    Высота : 534 пикселя
    Соотношение сторон : 2, 40: 1
    Режим частоты кадров : Постоянный
    Частота кадров : 23, 976 кадра/сек
    Цветовое пространство : YUV
    Субдискретизация насыщенности : 4: 2: 0
    Битовая глубина : 8 бит
    Тип развёртки : Прогрессивная
    Бит/(Пиксели*Кадры) : 0.334
    Размер потока : 6, 87 Гбайт (63%)
    Заголовок : potroks
    Библиотека кодирования : x264 core 130 r2273 b3065e6
    Настройки программы : cabac=1/ref=9/deblock=1: -3: -3/analyse=0x3: 0x133/me=umh/subme=11/psy=1/psy_rd=1.00: 0.00/mixed_ref=1/me_range=32/chroma_me=1/trellis=2/8x8dct=1/cqm=0/deadzone=21, 11/fast_pskip=1/chroma_qp_offset=-2/threads=6/lookahead_threads=1/sliced_threads=0/nr=0/decimate=0/interlaced=0/bluray_compat=0/constrained_intra=0/bframes=10/b_pyramid=2/b_adapt=2/b_bias=0/direct=3/weightb=1/open_gop=0/weightp=2/keyint=250/keyint_min=23/scenecut=40/intra_refresh=0/rc_lookahead=60/rc=2pass/mbtree=0/bitrate=5471/ratetol=1.0/qcomp=0.70/qpmin=0/qpmax=69/qpstep=4/cplxblur=20.0/qblur=0.5/vbv_maxrate=50000/vbv_bufsize=62500/nal_hrd=none/ip_ratio=1.35/pb_ratio=1.25/aq=1: 0.80
    Язык : English
    Default : Да
    Forced : Нет
    Аудио #1
    Идентификатор : 2
    Формат : AC-3
    Формат/Информация : Audio Coding 3
    Коммерческое название : Dolby Digital
    Идентификатор кодека : A_AC3
    Продолжительность : 2 ч. 59 м.
    Вид битрейта : Постоянный
    Битрейт : 640 Кбит/сек
    Каналы : 6 каналов
    ChannelLayout : L R C LFE Ls Rs
    Частота : 48, 0 КГц
    Частота кадров : 31, 250 кадров/сек (1536 SPF)
    Метод сжатия : С потерями
    Задержка видео : 20 с. 500 мс.
    Размер потока : 822 Мбайт (7%)
    Заголовок : Dub | DD 5.1 @ 640 kbps - Blu-Ray RUS
    Язык : Russian
    ServiceKind/String : Complete Main
    Default : Да
    Forced : Да
    Аудио #2
    Идентификатор : 3
    Формат : AC-3
    Формат/Информация : Audio Coding 3
    Коммерческое название : Dolby Digital
    Идентификатор кодека : A_AC3
    Продолжительность : 2 ч. 59 м.
    Вид битрейта : Постоянный
    Битрейт : 640 Кбит/сек
    Каналы : 6 каналов
    ChannelLayout : L R C LFE Ls Rs
    Частота : 48, 0 КГц
    Частота кадров : 31, 250 кадров/сек (1536 SPF)
    Метод сжатия : С потерями
    Размер потока : 823 Мбайт (7%)
    Заголовок : RUS М.Чадов
    Язык : Russian
    ServiceKind/String : Complete Main
    Default : Нет
    Forced : Нет
    Аудио #3
    Идентификатор : 4
    Формат : AC-3
    Формат/Информация : Audio Coding 3
    Коммерческое название : Dolby Digital
    Идентификатор кодека : A_AC3
    Продолжительность : 2 ч. 59 м.
    Вид битрейта : Постоянный
    Битрейт : 640 Кбит/сек
    Каналы : 6 каналов
    ChannelLayout : L R C LFE Ls Rs
    Частота : 48, 0 КГц
    Частота кадров : 31, 250 кадров/сек (1536 SPF)
    Метод сжатия : С потерями
    Размер потока : 823 Мбайт (7%)
    Заголовок : AVO | DD 5.1 @ 640 kbps - Ю.Немахов
    Язык : Russian
    ServiceKind/String : Complete Main
    Default : Нет
    Forced : Да
    Аудио #4
    Идентификатор : 5
    Формат : AC-3
    Формат/Информация : Audio Coding 3
    Коммерческое название : Dolby Digital
    Идентификатор кодека : A_AC3
    Продолжительность : 2 ч. 59 м.
    Вид битрейта : Постоянный
    Битрейт : 640 Кбит/сек
    Каналы : 6 каналов
    ChannelLayout : L R C LFE Ls Rs
    Частота : 48, 0 КГц
    Частота кадров : 31, 250 кадров/сек (1536 SPF)
    Метод сжатия : С потерями
    Размер потока : 823 Мбайт (7%)
    Заголовок : AVO | DD 5.1 @ 640 kbps - С.Визгунов
    Язык : Russian
    ServiceKind/String : Complete Main
    Default : Нет
    Forced : Нет
    Аудио #5
    Идентификатор : 6
    Формат : AC-3
    Формат/Информация : Audio Coding 3
    Коммерческое название : Dolby Digital
    Идентификатор кодека : A_AC3
    Продолжительность : 2 ч. 59 м.
    Вид битрейта : Постоянный
    Битрейт : 640 Кбит/сек
    Каналы : 6 каналов
    ChannelLayout : L R C LFE Ls Rs
    Частота : 48, 0 КГц
    Частота кадров : 31, 250 кадров/сек (1536 SPF)
    Метод сжатия : С потерями
    Размер потока : 823 Мбайт (7%)
    Заголовок : Original | DD 5.1 @ 640 kbps
    Язык : English
    ServiceKind/String : Complete Main
    Default : Нет
    Forced : Нет
    Текст #1
    Идентификатор : 7
    Формат : UTF-8
    Идентификатор кодека : S_TEXT/UTF8
    Идентификатор кодека/Информация : UTF-8 Plain Text
    Продолжительность : 2 ч. 52 м.
    Битрейт : 137 бит/сек
    ElementCount : 2987
    Размер потока : 173 Кбайт (0%)
    Заголовок : Blu-Ray
    Язык : Russian
    Default : Нет
    Forced : Нет
    Текст #2
    Идентификатор : 8
    Формат : UTF-8
    Идентификатор кодека : S_TEXT/UTF8
    Идентификатор кодека/Информация : UTF-8 Plain Text
    Продолжительность : 2 ч. 53 м.
    Битрейт : 163 бит/сек
    ElementCount : 2984
    Размер потока : 208 Кбайт (0%)
    Заголовок : Notabenoid
    Язык : Russian
    Default : Нет
    Forced : Нет
    Текст #3
    Идентификатор : 9
    Формат : UTF-8
    Идентификатор кодека : S_TEXT/UTF8
    Идентификатор кодека/Информация : UTF-8 Plain Text
    Продолжительность : 2 ч. 52 м.
    Битрейт : 97 бит/сек
    ElementCount : 3711
    Размер потока : 123 Кбайт (0%)
    Заголовок : Full
    Язык : English
    Default : Нет
    Forced : Нет
    Текст #4
    Идентификатор : 10
    Формат : UTF-8
    Идентификатор кодека : S_TEXT/UTF8
    Идентификатор кодека/Информация : UTF-8 Plain Text
    Продолжительность : 2 ч. 53 м.
    Битрейт : 106 бит/сек
    ElementCount : 4146
    Размер потока : 135 Кбайт (0%)
    Заголовок : SDH
    Язык : English
    Default : Нет
    Forced : Нет
    Текст #5
    Идентификатор : 11
    Формат : UTF-8
    Идентификатор кодека : S_TEXT/UTF8
    Идентификатор кодека/Информация : UTF-8 Plain Text
    Продолжительность : 2 ч. 54 м.
    Битрейт : 118 бит/сек
    ElementCount : 4148
    Размер потока : 151 Кбайт (0%)
    Заголовок : SDH-Colored
    Язык : English
    Default : Нет
    Forced : Нет
    Меню
    00: 07: 55.933 : en: (01)00: 07: 55: 933
    00: 14: 17.857 : en: (02)00: 14: 17: 857
    00: 21: 31.415 : en: (03)00: 21: 31: 415
    00: 32: 08.092 : en: (04)00: 32: 08: 092
    00: 40: 14.495 : en: (05)00: 40: 14: 495
    00: 48: 33.577 : en: (06)00: 48: 33: 577
    00: 55: 21.776 : en: (07)00: 55: 21: 776
    01: 01: 56.045 : en: (08)01: 01: 56: 045
    01: 07: 00.474 : en: (09)01: 07: 00: 474
    01: 11: 28.909 : en: (10)01: 11: 28: 909
    01: 19: 49.868 : en: (11)01: 19: 49: 868
    01: 29: 06.883 : en: (12)01: 29: 06: 883
    01: 37: 47.403 : en: (13)01: 37: 47: 403
    01: 45: 11.930 : en: (14)01: 45: 11: 930
    01: 54: 39.998 : en: (15)01: 54: 39: 998
    02: 03: 20.184 : en: (16)02: 03: 20: 184
    02: 07: 28.015 : en: (17)02: 07: 28: 015
    02: 17: 12.849 : en: (18)02: 17: 12: 849
    02: 25: 25.466 : en: (19)02: 25: 25: 466
    02: 32: 08.619 : en: (20)02: 32: 08: 619
    02: 36: 38.722 : en: (21)02: 36: 38: 722
    02: 44: 19.266 : en: (22)02: 44: 19: 266
    02: 53: 04.290 : en: (23)02: 53: 04: 290
    02: 59: 52.156 : en: (24)02: 59: 52: 156

    Скриншоты для ознакомления



    Все одноименные релизы в Клубе
    Время раздачи: c 5 до 19 мск (до появления первых 3-5 скачавших)

    Онлайн видео Волк с Уолл-стрит



    Волк с Уолл-стрит/The Wolf of Wall Street (2013) BDRip [H.264/720p] [US Transfer] [PR]
    Рейтинг →
     (голосов: 1, оценка 5/5, голосовать можно 1 раз )

    Другие торренты по теме:

  • Волк с Уолл-стрит / The Wolf of Wall Street (2013) BDRip [720p] скачать через торрент бесплатно
  • Волк с Уолл-стрит / The Wolf of Wall Street (2013) DVD9 скачать через торрент бесплатно
  • Волк с Уолл-стрит / The Wolf of Wall Street (2013) BDRip [1080p] скачать через торрент бесплатно
  • Волк с Уолл-стрит / The Wolf of Wall Street (2013) DVD5
  • Волк с Уолл-стрит / The Wolf of Wall Street (2013) BDRemux [1080p]
  • Волк с Уолл-стрит / The Wolf of Wall Street (2013) BDRip [H.264] скачать через торрент бесплатно
  • Волк с Уолл-стрит / The Wolf of Wall Street (2013) HDRip [AVO] скачать через торрент бесплатно
  • Волк с Уолл-стрит / The Wolf of Wall Street (2013) BDRip скачать через торрент бесплатно


    • Комментарии (0):

      Информация

      Информация

        Посетители, находящиеся в группе Гости, не могут оставлять комментарии в данной новости.

        ↓ Меню




        ↓ Опрос

        Вы добавили сайт в закладки?
        Да
        Нет


        Популярное