.
Авторизация | Регистрация

bitok.xyz

» » Снегоуборщик / Cold Pursuit (2019) BDRip [H.265 / 1080p] [10-bit] торрент скачать бесплатно


    Снегоуборщик / Cold Pursuit (2019) BDRip [H.265 / 1080p] [10-bit] торрент скачать бесплатно

    Дата: 28-10-2019, 05:00 | .torrent скачали: 3

    Снегоуборщик / Cold Pursuit (2019) BDRip [H.265 / 1080p] [10-bit]Производство: Великобритания, Норвегия, Канада, США, Франция, Германия/StudioCanal, MAS Production, Paradox Films
    Жанр: боевик, триллер, драма, криминал
    Режиссер: Ханс Петтер Муланд

    Актеры
    Лиам Нисон, Лора Дерн, Эмми Россум, Том Бейтман, Уильям Форсайт, Джулия Джонс, Дэвид О`Хара, Доменик Ломбардоззи, Элисия Ротару, Эмили Мэддисон

    Описание

    Мистер Коксман — примерный семьянин и уважаемый гражданин, размеренная жизнь которого заканчивается, когда наркоторговцы убивают его сына. В поисках справедливости он с ледяным хладнокровием начинает изощренно убирать бандитов одного за другим.

    Возраст: 18+ (зрителям, достигшим 18 лет. запрещено для детей)
    Рейтинг MPAA: R (лицам до 17 лет обязательно присутствие взрослого)
    Релиз от: HANNIBAL (HEVC-CLUB)
    Продолжительность: 01: 59: 00
    Качество видео: BDRip
    Перевод: Дублированный (Лицензия)
    Субтитры: Русские (форсированные, полные), английские
    Видео: HEVC/H.265, 1920x804, ~7202 Kbps
    Аудио 1: AC3, 6 ch, 448 Kbps - Русский, дублированный
    Аудио 2: AC3, 6 ch, 640 Kbps - Английский
    Общее
    Уникальный идентификатор : 219936814682131585777090338639347906442 (0xA5764A2B8B8F55F8F2E480E748F6F78A)
    Полное имя : R: Cold Pursuit (2019) BDRip 1080p HEVC 10bit.mkv
    Формат : Matroska
    Версия формата : Version 4/Version 2
    Размер файла : 6, 89 Гбайт
    Продолжительность : 1 ч. 59 м.
    Общий поток : 8293 Кбит/сек
    Название фильма : Снегоуборщик
    Дата кодирования : UTC 2019-10-24 11: 30: 53
    Программа кодирования : mkvmerge v28.2.0 (\'The Awakening\') 64-bit
    Библиотека кодирования : libebml v1.3.6 + libmatroska v1.4.9
    Attachments : poster.jpg
    Видео
    Идентификатор : 1
    Формат : HEVC
    Формат/Информация : High Efficiency Video Coding
    Профиль формата : Main10@L4.1@High
    Идентификатор кодека : V_MPEGH/ISO/HEVC
    Продолжительность : 1 ч. 59 м.
    Битрейт : 7202 Кбит/сек
    Ширина : 1920 пикселей
    Высота : 804 пикселя
    Соотношение сторон : 2, 40: 1
    Режим частоты кадров : Постоянный
    Частота кадров : 23, 976 (24000/1001) кадра/сек
    Цветовое пространство : YUV
    Субдискретизация насыщенности : 4: 2: 0
    Битовая глубина : 10 бит
    Бит/(Пиксели*Кадры) : 0.195
    Размер потока : 5, 99 Гбайт (87%)
    Библиотека кодирования : x265 2.9+9-f74003e88622: WindowsGCC 8.2.064 bit 10bit
    Настройки программы : cpuid=1111039/frame-threads=13/numa-pools=12/wpp/no-pmode/no-pme/no-psnr/no-ssim/log-level=3/input-csp=1/input-res=1920x804/interlace=0/total-frames=0/level-idc=41/high-tier=1/uhd-bd=0/ref=5/allow-non-conformance/no-repeat-t_heads/annexb/no-aud/no-hrd/info/hash=0/no-temporal-layers/open-gop/min-keyint=23/keyint=240/gop-lookahead=0/bframes=8/b-adapt=2/b-pyramid/bframe-bias=0/rc-lookahead=60/lookahead-slices=4/scenecut=40/radl=0/no-intra-refresh/ctu=64/min-cu-size=8/rect/amp/max-tu-size=32/tu-inter-depth=4/tu-intra-depth=4/limit-tu=0/rdoq-level=2/dynamic-rd=0.00/no-ssim-rd/signhide/no-tskip/nr-intra=0/nr-inter=0/no-constrained-intra/no-strong-intra-smoothing/max-merge=5/limit-refs=2/limit-modes/me=3/subme=7/merange=57/temporal-mvp/weightp/weightb/no-analyze-src-pics/deblock=-3: -3/no-sao/no-sao-non-deblock/rd=6/no-early-skip/rskip/no-fast-intra/no-tskip-fast/no-cu-lossless/b-intra/no-splitrd-skip/rdpenalty=0/psy-rd=2.00/psy-rdoq=1.00/no-rd-refine/no-lossless/cbqpoffs=0/crqpoffs=0/rc=crf/crf=18.5/qcomp=0.70/qpstep=4/stats-write=0/stats-read=0/vbv-maxrate=50000/vbv-bufsize=50000/vbv-init=0.9/crf-max=0.0/crf-min=0.0/ipratio=1.40/pbratio=1.30/aq-mode=2/aq-strength=1.00/no-cutree/zone-count=0/no-strict-cbr/qg-size=32/no-rc-grain/qpmax=69/qpmin=0/no-const-vbv/sar=1/overscan=0/videoformat=5/range=0/colorprim=1/transfer=1/colormatrix=1/chromaloc=0/display-window=0/max-cll=0, 0/min-luma=0/max-luma=1023/log2-max-poc-lsb=8/vui-timing-info/vui-hrd-info/slices=1/no-opt-qp-pps/no-opt-ref-list-length-pps/no-multi-pass-opt-rps/scenecut-bias=0.05/no-opt-cu-delta-qp/aq-motion/no-hdr/no-hdr-opt/no-dhdr10-opt/no-idr-recovery-sei/analysis-reuse-level=5/scale-factor=0/refine-intra=0/refine-inter=0/refine-mv=0/no-limit-sao/ctu-info=0/no-lowpass-dct/refine-mv-type=0/copy-pic=1/max-ausize-factor=1.0/no-dynamic-refine/no-single-sei
    Язык : English
    Default : Да
    Forced : Нет
    Цветовой диапазон : Limited
    Основные цвета : BT.709
    Характеристики трансфера : BT.709
    Коэффициенты матрицы : BT.709
    Аудио #1
    Идентификатор : 2
    Формат : AC-3
    Формат/Информация : Audio Coding 3
    Идентификатор кодека : A_AC3
    Продолжительность : 1 ч. 58 м.
    Вид битрейта : Постоянный
    Битрейт : 448 Кбит/сек
    Каналы : 6 каналов
    Расположение каналов : Front: L C R, Side: L R, LFE
    Частота : 48, 0 КГц
    Частота кадров : 31, 250 кадров/сек (1536 SPF)
    Битовая глубина : 16 бит
    Метод сжатия : С потерями
    Размер потока : 381 Мбайт (5%)
    Заголовок : Лицензия
    Язык : Russian
    ServiceKind/String : Complete Main
    Default : Да
    Forced : Нет
    Аудио #2
    Идентификатор : 3
    Формат : AC-3
    Формат/Информация : Audio Coding 3
    Идентификатор кодека : A_AC3
    Продолжительность : 1 ч. 59 м.
    Вид битрейта : Постоянный
    Битрейт : 640 Кбит/сек
    Каналы : 6 каналов
    Расположение каналов : Front: L C R, Side: L R, LFE
    Частота : 48, 0 КГц
    Частота кадров : 31, 250 кадров/сек (1536 SPF)
    Битовая глубина : 16 бит
    Метод сжатия : С потерями
    Размер потока : 545 Мбайт (8%)
    Язык : English
    ServiceKind/String : Complete Main
    Default : Нет
    Forced : Нет
    Текст #1
    Идентификатор : 4
    Формат : UTF-8
    Идентификатор кодека : S_TEXT/UTF8
    Идентификатор кодека/Информация : UTF-8 Plain Text
    Продолжительность : 1 ч. 48 м.
    Битрейт : 1 бит/сек
    ElementCount : 19
    Размер потока : 1009 байт (0%)
    Заголовок : Форсированные
    Язык : Russian
    Default : Нет
    Forced : Нет
    Текст #2
    Идентификатор : 5
    Формат : UTF-8
    Идентификатор кодека : S_TEXT/UTF8
    Идентификатор кодека/Информация : UTF-8 Plain Text
    Продолжительность : 1 ч. 49 м.
    Битрейт : 62 бит/сек
    ElementCount : 979
    Размер потока : 50, 3 Кбайт (0%)
    Заголовок : Полные
    Язык : Russian
    Default : Да
    Forced : Нет
    Текст #3
    Идентификатор : 6
    Формат : UTF-8
    Идентификатор кодека : S_TEXT/UTF8
    Идентификатор кодека/Информация : UTF-8 Plain Text
    Продолжительность : 1 ч. 47 м.
    Битрейт : 40 бит/сек
    ElementCount : 968
    Размер потока : 31, 9 Кбайт (0%)
    Язык : English
    Default : Нет
    Forced : Нет
    Меню
    00: 00: 00.000 : : Chapter 1
    00: 07: 26.946 : : Chapter 2
    00: 13: 19.257 : : Chapter 3
    00: 21: 35.211 : : Chapter 4
    00: 29: 35.649 : : Chapter 5
    00: 38: 18.880 : : Chapter 6
    00: 45: 11.876 : : Chapter 7
    00: 53: 08.310 : : Chapter 8
    01: 01: 23.513 : : Chapter 9
    01: 05: 46.359 : : Chapter 10
    01: 14: 04.857 : : Chapter 11
    01: 22: 21.186 : : Chapter 12
    01: 31: 40.954 : : Chapter 13
    01: 38: 46.879 : : Chapter 14
    01: 45: 20.939 : : Chapter 15
    01: 47: 43.540 : : Chapter 16


    Онлайн видео Снегоуборщик



    Снегоуборщик/Cold Pursuit (2019) BDRip [H.265/1080p] [10-bit]
    Рейтинг →
     (голосов: 1, оценка 4/5, голосовать можно 1 раз )

    Другие торренты по теме:

  • Снегоуборщик / Cold Pursuit (2019) TS [AD]
  • Снегоуборщик / Cold Pursuit (2019) TS [H.264 / 720p-LQ] [AD]
  • Снегоуборщик / Cold Pursuit (2019) WEBRip [H.264 / 1080p-LQ] [MVO] [AD]
  • Снегоуборщик / Cold Pursuit (2019) WEBRip [Звук с TS, AD]
  • Снегоуборщик / Cold Pursuit (2019) BDRemux [H.264 / 1080p]
  • Снегоуборщик / Cold Pursuit (2019) UHD BDRemux [H.265 / 2160p] [4K, HDR, 10-bit]
  • Снегоуборщик / Cold Pursuit (2019) BDRip [H.264]
  • Снегоуборщик / Cold Pursuit (2019) BDRip [H.264 / 720p]


    • Комментарии (0):

      Информация

      Информация

        Посетители, находящиеся в группе Гости, не могут оставлять комментарии в данной новости.

        ↓ Меню




        ↓ Опрос

        Вы добавили сайт в закладки?
        Да
        Нет


        Популярное