.
Авторизация | Регистрация

bitok.xyz

» » Блэйз / Blaze (2018) BDRemux [MPEG-2 / 1080p] [MVO] торрент скачать бесплатно


    Блэйз / Blaze (2018) BDRemux [MPEG-2 / 1080p] [MVO] торрент скачать бесплатно

    Дата: 28-10-2019, 05:00 | .torrent скачали: 1

    Блэйз / Blaze (2018) BDRemux [MPEG-2 / 1080p] [MVO]Производство: США, Ansgar Media, Cinetic Media, Under the Influence Productions
    Жанр: Драма, биография, музыка
    Режиссер: Итан Хоук

    Актеры
    Бен Дики, Алиа Шокат, Чарли Секстон, Джош Хэмилтон, Крис Кристофферсон, Ричард Линклейтер, Сэм Рокуэлл, Стив Зан, Gurf Morlix, Итан Хоук

    Описание

    Горькая блюзовая меланхолия Итана Хоука или, как он сам говорит, гонзо-инди-кантри-вестерн о периферийной легенде техасской барной музыки 80-х. Портрет маргинального певца и поэта-песенника Блейза Фоли, обогатившего репертуар многих легенд кантри-музыки: Мерла Хаггарда, Вилли Нельсона, Лайла Ловетта, Джона Прайна. Его жизнь, любовь и творчество выходили за рамки всех стандартных сценариев и установок.

    Рейтинг MPAA: R (лицам до 17 лет обязательно присутствие взрослого)
    Релиз от: mike7025
    Продолжительность: 02: 08: 44
    Качество видео: BDRemux
    Перевод: Многоголосый профессиональный (HDRezka Studio)
    Субтитры: Русские (Jacksubs /Антон Коляго, ненормативная лексика), английские, финские, шведские, датские, норвежские
    Видео: MPEG-2, 1920x1080, ~18.0 Mbps
    Аудио 1: AC3, 2 ch, 192 Kbps - Русский (MVO, HDRezka Studio)
    Аудио 2: DTS-HD MA, 6 ch, 1920 Kbps - Английский
    General
    Unique ID : 57186799229940017695077639365542548866 (0x2B05C6E350C8CB9060A8AD6F20DC1582)
    Complete name : G: Blaze.2018.REMUX.mkv
    Format : Matroska
    Format version : Version 4/Version 2
    File size : 18.1 GiB
    Duration : 2 h 8 min
    Overall bit rate mode : Variable
    Overall bit rate : 20.1 Mb/s
    Encoded date : UTC 2019-04-13 19: 25: 20
    Writing application : mkvmerge v20.0.0 (\'I Am The Sun\') 64-bit
    Writing library : libebml v1.3.5 + libmatroska v1.4.8
    Video
    ID : 1
    Format : MPEG Video
    Format version : Version 2
    Format profile : Main@High
    Format settings : BVOP
    Format settings, BVOP : Yes
    Format settings, Matrix : Default
    Format settings, GOP : M=3, N=12
    Codec ID : V_MPEG2
    Codec ID/Info : MPEG 1 or 2 Video
    Duration : 2 h 8 min
    Bit rate mode : Variable
    Bit rate : 18.0 Mb/s
    Maximum bit rate : 40.0 Mb/s
    Width : 1 920 pixels
    Height : 1 080 pixels
    Display aspect ratio : 16: 9
    Frame rate mode : Constant
    Frame rate : 23.976 (24000/1001) FPS
    Color space : YUV
    Chroma subsampling : 4: 2: 0
    Bit depth : 8 bits
    Scan type : Progressive
    Compression mode : Lossy
    Bits/(Pixel*Frame) : 0.362
    Time code of first frame : 00: 00: 00: 00
    Time code source : Group of pictures t_head
    GOP, Open/Closed : Closed
    Stream size : 16.2 GiB (90%)
    Language : English
    Default : Yes
    Forced : No
    Audio #1
    ID : 2
    Format : AC-3
    Format/Info : Audio Coding 3
    Codec ID : A_AC3
    Duration : 2 h 8 min
    Bit rate mode : Constant
    Bit rate : 192 kb/s
    Channel(s) : 2 channels
    Channel positions : Front: L R
    Sampling rate : 48.0 kHz
    Frame rate : 31.250 FPS (1536 SPF)
    Bit depth : 16 bits
    Compression mode : Lossy
    Stream size : 177 MiB (1%)
    Title : MVO HDrezka Studio
    Language : Russian
    Service kind : Complete Main
    Default : Yes
    Forced : No
    Audio #2
    ID : 3
    Format : DTS
    Format/Info : Digital Theater Systems
    Format profile : MA/Core
    Codec ID : A_DTS
    Duration : 2 h 8 min
    Bit rate mode : Variable/Constant
    Bit rate : 1 920 kb/s/1 509 kb/s
    Channel(s) : 6 channels
    Channel positions : Front: L C R, Side: L R, LFE
    Sampling rate : 48.0 kHz
    Frame rate : 93.750 FPS (512 SPF)
    Bit depth : 16 bits
    Compression mode : Lossless/Lossy
    Stream size : 1.70 GiB (9%)
    Language : English
    Default : No
    Forced : No
    Text #1
    ID : 4
    Format : UTF-8
    Codec ID : S_TEXT/UTF8
    Codec ID/Info : UTF-8 Plain Text
    Duration : 2 h 3 min
    Bit rate : 110 b/s
    Count of elements : 1772
    Stream size : 100 KiB (0%)
    Language : Russian
    Default : No
    Forced : No
    Text #2
    ID : 5
    Format : UTF-8
    Codec ID : S_TEXT/UTF8
    Codec ID/Info : UTF-8 Plain Text
    Duration : 2 h 8 min
    Bit rate : 83 b/s
    Count of elements : 2208
    Stream size : 78.8 KiB (0%)
    Language : English
    Default : No
    Forced : No
    Text #3
    ID : 6
    Format : PGS
    Muxing mode : zlib
    Codec ID : S_HDMV/PGS
    Codec ID/Info : Picture based subtitle format used on BDs/HD-DVDs
    Duration : 2 h 4 min
    Bit rate : 21.9 kb/s
    Count of elements : 2009
    Stream size : 19.5 MiB (0%)
    Language : Finnish
    Default : No
    Forced : No
    Text #4
    ID : 7
    Format : PGS
    Muxing mode : zlib
    Codec ID : S_HDMV/PGS
    Codec ID/Info : Picture based subtitle format used on BDs/HD-DVDs
    Duration : 2 h 4 min
    Bit rate : 20.4 kb/s
    Count of elements : 2009
    Stream size : 18.1 MiB (0%)
    Language : Swedish
    Default : No
    Forced : No
    Text #5
    ID : 8
    Format : PGS
    Muxing mode : zlib
    Codec ID : S_HDMV/PGS
    Codec ID/Info : Picture based subtitle format used on BDs/HD-DVDs
    Duration : 2 h 4 min
    Bit rate : 20.3 kb/s
    Count of elements : 2027
    Stream size : 18.1 MiB (0%)
    Language : Danish
    Default : No
    Forced : No
    Text #6
    ID : 9
    Format : PGS
    Muxing mode : zlib
    Codec ID : S_HDMV/PGS
    Codec ID/Info : Picture based subtitle format used on BDs/HD-DVDs
    Duration : 2 h 4 min
    Bit rate : 19.9 kb/s
    Count of elements : 2013
    Stream size : 17.7 MiB (0%)
    Language : Norwegian
    Default : No
    Forced : No
    Menu
    00: 00: 00.000 : : Capítulo 01
    00: 12: 02.722 : : Capítulo 02
    00: 26: 58.617 : : Capítulo 03
    00: 42: 26.044 : : Capítulo 04
    00: 59: 19.056 : : Capítulo 05
    01: 12: 20.837 : : Capítulo 06
    01: 29: 46.882 : : Capítulo 07
    01: 41: 48.603 : : Capítulo 08
    01: 53: 48.822 : : Capítulo 09

    Скриншоты для ознакомления




    Все одноименные релизы в Клубе
    Время раздачи: 24/7 (до появления первых 3-5 скачавших)

    Онлайн видео Блэйз



    Блэйз/Blaze (2018) BDRemux [MPEG-2/1080p] [MVO]
    Рейтинг →
     (голосов: 1, оценка 5/5, голосовать можно 1 раз )

    Другие торренты по теме:

  • Блэйз / Blaze (1989) DVDRip
  • Блэйз / Blaze (2018) AC3 5.1 HDRezka studio [hand made]


    • Комментарии (0):

      Информация

      Информация

        Посетители, находящиеся в группе Гости, не могут оставлять комментарии в данной новости.

        ↓ Меню




        ↓ Опрос

        Вы добавили сайт в закладки?
        Да
        Нет


        Популярное