.
Авторизация | Регистрация

bitok.xyz

» » Битва Титанов / Clash of the Titans (2010) HDRip торрент скачать бесплатно


    Битва Титанов / Clash of the Titans (2010) HDRip торрент скачать бесплатно

    Дата: 28-10-2019, 05:00 | .torrent скачали: 3

    Битва Титанов / Clash of the Titans (2010) HDRipПроизводство: США, Великобритания, Австралия/Warner Bros. Pictures, Legendary Pictures, Thunder Road Pictures
    Жанр: Фэнтези, Боевик, Приключения
    Режиссер: Луи Летерье

    Актеры
    Сэм Уортингтон (Персей), Лиам Нисон (Зевс), Рэйф Файнс (Гадес), Джемма Артертон (Ио), Алекса Давалос (Андромеда), Наталья Водянова (Медуза), Дэнни Хьюстон (Посейдон), Джейсон Флеминг (Акрисий), Мадс Миккелсен (Драко), Изабелла Майко (Афина), Лайэм Каннингэм, Люк Тредэвей

    Описание

    Персей, сын бога, воспитанный человеком, не смог защитить свою семью от Аида, мстительного повелителя подземного мира. Теперь ему уже нечего терять, и он добровольно соглашается возглавить опасную миссию, чтобы одержать победу над Аидом до того, как тот отберет власть у Зевса и выпустит демонов подземного царства на Землю.
    Возглавляя отряд бесстрашных воинов, Персей отправляется в рискованное путешествие по лабиринту запретных миров. Чтобы победить в свирепой схватке с жуткими демонами и злобными чудовищами, противостоять злому року и стать хозяином своей судьбы, он должен осознать и принять свою божественную силу.

    Возраст: 12+ (зрителям, достигшим 12 лет)
    Рейтинг MPAA: PG-13 (детям до 13 лет просмотр нежелателен)
    Продолжительность: 01: 46: 07
    Качество видео: HDRip
    Субтитры: Отсутствуют
    Видео: XviD, 720x320, 2200 Kbps
    Аудио 1: AC3, 6 ch, 384 Kbps - Русский - Дублированный
    Аудио 2: AC3, 6 ch, 192 Kbps - Украинский - Дублированный
    Аудио 3: АС3, 6 ch, 192 Kbps - Английский - Оригинал
    Общее
    Полное имя : D: ЗагрузкиBitva Titanov 2010 HDRip XviD.avi
    Формат : AVI
    Формат/Информация : Audio Video Interleave
    Профиль формата : OpenDML
    Размер файла : 2, 21 Гбайт
    Продолжительность : 1 ч. 46 м.
    Общий поток : 2980 Кбит/сек
    Программа кодирования : VirtualDubModRus 1.5.10.2 (build 2542/release)
    Библиотека кодирования : VirtualDubMod build 2542/release
    Видео
    Идентификатор : 0
    Формат : MPEG-4 Visual
    Профиль формата : Advanced Simple@L5
    Настройки формата : BVOP1
    Параметр BVOP формата : 1
    Параметр QPel формата : Нет
    Параметр GMC формата : Без точки перехода
    Параметр матрицы формата : Default (H.263)
    Идентификатор кодека : XVID
    Идентификатор кодека/Подсказка : XviD
    Продолжительность : 1 ч. 46 м.
    Битрейт : 2200 Кбит/сек
    Ширина : 720 пикселей
    Высота : 320 пикселей
    Соотношение сторон : 2, 25: 1
    Частота кадров : 23, 976 (24000/1001) кадра/сек
    Цветовое пространство : YUV
    Субдискретизация насыщенности : 4: 2: 0
    Битовая глубина : 8 бит
    Тип развёртки : Прогрессивная
    Метод сжатия : С потерями
    Бит/(Пиксели*Кадры) : 0.398
    Размер потока : 1, 63 Гбайт (74%)
    Библиотека кодирования : XviD 67
    Аудио #1
    Идентификатор : 1
    Формат : AC-3
    Формат/Информация : Audio Coding 3
    Коммерческое название : Dolby Digital
    Идентификатор кодека : 2000
    Продолжительность : 1 ч. 46 м.
    Вид битрейта : Постоянный
    Битрейт : 384 Кбит/сек
    Каналы : 6 каналов
    ChannelLayout : L R C LFE Ls Rs
    Частота : 48, 0 КГц
    Частота кадров : 31, 250 кадров/сек (1536 SPF)
    Битовая глубина : 16 бит
    Метод сжатия : С потерями
    Размер потока : 291 Мбайт (13%)
    Выравнивание : Разделение по промежуткам
    Продолжительность промежутка : 80 мс. (1, 92 видеокадра)
    Время предзагрузки промежутка : 560 мс.
    ServiceKind/String : Complete Main
    Аудио #2
    Идентификатор : 2
    Формат : AC-3
    Формат/Информация : Audio Coding 3
    Коммерческое название : Dolby Digital
    Идентификатор кодека : 2000
    Продолжительность : 1 ч. 46 м.
    Вид битрейта : Постоянный
    Битрейт : 192 Кбит/сек
    Каналы : 6 каналов
    ChannelLayout : L R C LFE Ls Rs
    Частота : 48, 0 КГц
    Частота кадров : 31, 250 кадров/сек (1536 SPF)
    Битовая глубина : 16 бит
    Метод сжатия : С потерями
    Размер потока : 146 Мбайт (6%)
    Выравнивание : Соединение по промежуткам
    Продолжительность промежутка : 160 мс. (3, 84 видеокадра)
    Время предзагрузки промежутка : 640 мс.
    ServiceKind/String : Complete Main
    Аудио #3
    Идентификатор : 3
    Формат : AC-3
    Формат/Информация : Audio Coding 3
    Коммерческое название : Dolby Digital
    Идентификатор кодека : 2000
    Продолжительность : 1 ч. 46 м.
    Вид битрейта : Постоянный
    Битрейт : 192 Кбит/сек
    Каналы : 6 каналов
    ChannelLayout : L R C LFE Ls Rs
    Частота : 48, 0 КГц
    Частота кадров : 31, 250 кадров/сек (1536 SPF)
    Битовая глубина : 16 бит
    Метод сжатия : С потерями
    Размер потока : 146 Мбайт (6%)
    Выравнивание : Соединение по промежуткам
    Продолжительность промежутка : 160 мс. (3, 84 видеокадра)
    Время предзагрузки промежутка : 640 мс.
    ServiceKind/String : Complete Main

    Скриншоты для ознакомления



    Все одноименные релизы в Клубе
    Время раздачи: 24/7 (до появления первых 3-5 скачавших)

    Онлайн видео Битва Титанов



    Битва Титанов/Clash of the Titans (2010) HDRip
    Рейтинг →
     (голосов: 1, оценка 5/5, голосовать можно 1 раз )

    Другие торренты по теме:

  • Титаны - Дилогия: Битва Титанов / Clash of the Titans (2010), Гнев Титанов / Wrath of the Titans (2012) [H.264 / 1080p-LQ]
  • Титаны: Битва Титанов / Clash of the Titans (2010), Гнев Титанов / Wrath of the Titans (2012) BDRip [H.264 / 720p] [PR] [Дилогия]
  • Битва Титанов / Clash of the titans (1981) BDRip [H.264] скачать через торрент бесплатно
  • Ловчий смерти 2: Битва титанов / Deathstalker 2 (1987) DVDRip [H.264]
  • Ловчий смерти 2: Битва титанов / Deathstalker II (1987) HDRip [H.264]
  • Ловчий смерти 2: Битва титанов / Deathstalker 2 (1987) BDRemux [H.264 / 1080p]
  • Битва Титанов / Clash of the Titans (2010) BDRip [H.264 / 720p]
  • Битва Титанов / Clash of the Titans (2010) BDRip [H.264 / 1080p]


    • Комментарии (0):

      Информация

      Информация

        Посетители, находящиеся в группе Гости, не могут оставлять комментарии в данной новости.

        ↓ Меню




        ↓ Опрос

        Вы добавили сайт в закладки?
        Да
        Нет


        Популярное