.
Авторизация | Регистрация

bitok.xyz

» » Полынь: Дорога мёртвых / Лесной змей / Wyrmwood (2014) BDRip [H.264] [MVO] торрент скачать бесплатно


    Полынь: Дорога мёртвых / Лесной змей / Wyrmwood (2014) BDRip [H.264] [MVO] торрент скачать бесплатно

    Дата: 28-10-2019, 05:00 | .torrent скачали: 0

    Полынь: Дорога мёртвых / Лесной змей / Wyrmwood (2014) BDRip [H.264] [MVO]Производство: Австралия/Guerilla Films
    Жанр: ужасы, боевик, комедия
    Режиссер: Кия Роуч-Тернер
    Продюсер: Samantha Cordingley, Джон А. Хери, Джэми Хилтон

    Актеры
    Джей Галлахер, Бьянка Брэди, Леон Бурчилл, Кит Агиус, Беринн Швердт, Люк МакКензи, Кэйн Томпсон, Дэмиэн Дайк, Юр Кович, Катрин Террачини

    Описание

    Барри был талантливым механиком и семейным человеком, пока его счастливая жизнь не закончилась с началом зомби-апокалипсиса. Он объединяется с ещё одним выжившим, Чалкером, и вместе они вооружаются, чтобы противостоять орде плотоядных монстров, рыщущих в суровых австралийских зарослях.

    Продолжительность: 01: 38: 18
    Качество видео: BDRip
    Перевод: многоголосый профессиональный, авторский
    Субтитры: русские, английские
    Видео: AVC/H.264, 1024x576, ~2896 kbps
    Аудио: AC3, 6 ch, 448 kbps, Русский (MVO СВ Студия)ненорматив
    Аудио: AC3, 6 ch, 448 kbps, Русский (AVO Д.Есарев)ненорматив
    Аудио: AC3, 6 ch, 448 kbps, Английский
    Общее
    Уникальный идентификатор : 202321848548157858703380776744622165996 (0x9835C549778E1C4A96E7DD2DB6CB0FEC)
    Полное имя : D: FILMSLesnoy.Zmey.2014.BDRip.mkv
    Формат : Matroska
    Версия формата : Version 4
    Размер файла : 2, 91 Гбайт
    Продолжительность : 1 ч. 38 м.
    Общий поток : 4243 Кбит/сек
    Название фильма : Wyrmwood (2014)
    Дата кодирования : UTC 2019-10-26 15: 14: 13
    Программа кодирования : mkvmerge v8.2.0 (\'World of Adventure\') 64bit
    Библиотека кодирования : libebml v1.3.1 + libmatroska v1.4.2
    Видео
    Идентификатор : 1
    Формат : AVC
    Формат/Информация : Advanced Video Codec
    Профиль формата : High@L4.1
    Настройки формата : CABAC/12 Ref Frames
    Параметр CABAC формата : Да
    Параметр RefFrames формата : 12 кадров
    Идентификатор кодека : V_MPEG4/ISO/AVC
    Продолжительность : 1 ч. 38 м.
    Битрейт : 2896 Кбит/сек
    Ширина : 1024 пикселя
    Высота : 576 пикселей
    Соотношение сторон : 16: 9
    Режим частоты кадров : Постоянный
    Частота кадров : 24, 000 кадра/сек
    Цветовое пространство : YUV
    Субдискретизация насыщенности : 4: 2: 0
    Битовая глубина : 8 бит
    Тип развёртки : Прогрессивная
    Бит/(Пиксели*Кадры) : 0.205
    Размер потока : 1, 99 Гбайт (68%)
    Заголовок : potroks
    Библиотека кодирования : x264 core 155 r2901M 7d0ff22
    Настройки программы : cabac=1/ref=12/deblock=1: -2: -2/analyse=0x3: 0x133/me=umh/subme=11/psy=1/psy_rd=0.96: 0.00/mixed_ref=1/me_range=48/chroma_me=1/trellis=2/8x8dct=1/cqm=0/deadzone=21, 11/fast_pskip=0/chroma_qp_offset=-2/threads=9/lookahead_threads=2/sliced_threads=0/nr=0/decimate=0/interlaced=0/bluray_compat=0/constrained_intra=0/bframes=12/b_pyramid=2/b_adapt=2/b_bias=0/direct=3/weightb=1/open_gop=0/weightp=2/keyint=240/keyint_min=23/scenecut=40/intra_refresh=0/rc_lookahead=100/rc=2pass/mbtree=0/bitrate=2896/ratetol=1.0/qcomp=0.70/qpmin=0/qpmax=69/qpstep=4/cplxblur=20.0/qblur=0.5/vbv_maxrate=50000/vbv_bufsize=50000/nal_hrd=none/filler=0/ip_ratio=1.40/pb_ratio=1.30/aq=1: 0.80
    Язык : English
    Default : Да
    Forced : Нет
    Аудио #1
    Идентификатор : 2
    Формат : AC-3
    Формат/Информация : Audio Coding 3
    Коммерческое название : Dolby Digital
    Идентификатор кодека : A_AC3
    Продолжительность : 1 ч. 38 м.
    Вид битрейта : Постоянный
    Битрейт : 448 Кбит/сек
    Каналы : 6 каналов
    ChannelLayout : L R C LFE Ls Rs
    Частота : 48, 0 КГц
    Частота кадров : 31, 250 кадров/сек (1536 SPF)
    Метод сжатия : С потерями
    Размер потока : 315 Мбайт (11%)
    Заголовок : MVO | DD 5.1 @ 448 kbps - SV Studio
    Язык : Russian
    ServiceKind/String : Complete Main
    Default : Да
    Forced : Нет
    Аудио #2
    Идентификатор : 3
    Формат : AC-3
    Формат/Информация : Audio Coding 3
    Коммерческое название : Dolby Digital
    Идентификатор кодека : A_AC3
    Продолжительность : 1 ч. 38 м.
    Вид битрейта : Постоянный
    Битрейт : 448 Кбит/сек
    Каналы : 6 каналов
    ChannelLayout : L R C LFE Ls Rs
    Частота : 48, 0 КГц
    Частота кадров : 31, 250 кадров/сек (1536 SPF)
    Метод сжатия : С потерями
    Размер потока : 315 Мбайт (11%)
    Заголовок : AVO | DD 5.1 @ 448 kbps - D.Yesarev uncensored
    Язык : Russian
    ServiceKind/String : Complete Main
    Default : Нет
    Forced : Нет
    Аудио #3
    Идентификатор : 4
    Формат : AC-3
    Формат/Информация : Audio Coding 3
    Коммерческое название : Dolby Digital
    Идентификатор кодека : A_AC3
    Продолжительность : 1 ч. 38 м.
    Вид битрейта : Постоянный
    Битрейт : 448 Кбит/сек
    Каналы : 6 каналов
    ChannelLayout : L R C LFE Ls Rs
    Частота : 48, 0 КГц
    Частота кадров : 31, 250 кадров/сек (1536 SPF)
    Метод сжатия : С потерями
    Размер потока : 315 Мбайт (11%)
    Заголовок : Original | DD 5.1 @ 448 kbps
    Язык : English
    ServiceKind/String : Complete Main
    Default : Нет
    Forced : Нет
    Текст #1
    Идентификатор : 5
    Формат : UTF-8
    Идентификатор кодека : S_TEXT/UTF8
    Идентификатор кодека/Информация : UTF-8 Plain Text
    Продолжительность : 1 ч. 34 м.
    Битрейт : 51 бит/сек
    ElementCount : 817
    Размер потока : 35, 4 Кбайт (0%)
    Язык : Russian
    Default : Нет
    Forced : Нет
    Текст #2
    Идентификатор : 6
    Формат : UTF-8
    Идентификатор кодека : S_TEXT/UTF8
    Идентификатор кодека/Информация : UTF-8 Plain Text
    Продолжительность : 1 ч. 34 м.
    Битрейт : 29 бит/сек
    ElementCount : 790
    Размер потока : 20, 5 Кбайт (0%)
    Заголовок : Full
    Язык : English
    Default : Нет
    Forced : Нет
    Текст #3
    Идентификатор : 7
    Формат : UTF-8
    Идентификатор кодека : S_TEXT/UTF8
    Идентификатор кодека/Информация : UTF-8 Plain Text
    Продолжительность : 1 ч. 35 м.
    Битрейт : 42 бит/сек
    ElementCount : 955
    Размер потока : 29, 8 Кбайт (0%)
    Заголовок : SDH-Colored
    Язык : English
    Default : Нет
    Forced : Нет
    Меню
    00: 00: 00.000 : : Chapter 01
    00: 07: 01.457 : : Chapter 02
    00: 10: 52.750 : : Chapter 03
    00: 17: 59.458 : : Chapter 04
    00: 23: 51.040 : : Chapter 05
    00: 33: 34.915 : : Chapter 06
    00: 38: 04.625 : : Chapter 07
    00: 41: 46.875 : : Chapter 08
    00: 48: 51.708 : : Chapter 09
    00: 53: 35.458 : : Chapter 10
    00: 56: 38.333 : : Chapter 11
    01: 03: 26.958 : : Chapter 12
    01: 12: 37.082 : : Chapter 13
    01: 17: 05.750 : : Chapter 14
    01: 21: 50.541 : : Chapter 15
    01: 33: 53.041 : : Chapter 16

    Скриншоты для ознакомления



    Все одноименные релизы в Клубе
    Время раздачи: c 5 до 19 мск (до появления первых 3-5 скачавших)

    Онлайн видео Полынь: Дорога мёртвых



    Полынь: Дорога мёртвых/Лесной змей/Wyrmwood (2014) BDRip [H.264] [MVO]
    Рейтинг →
     (голосов: 1, оценка 5/5, голосовать можно 1 раз )

    Другие торренты по теме:

  • Лесной змей (Полынь: Дорога мертвых) / Wyrmwood: Road of the dead (2014) Blu-ray [H.264 / 1080p] [Custom]
  • Полынь: Дорога мёртвых / Лесной змей / Wyrmwood (2014) BDRip [H.264 / 720p] [MVO]
  • Полынь: Дорога мёртвых / Лесной змей / Wyrmwood (2014) BDRip [H.264 / 1080p] [MVO]


    • Комментарии (0):

      Информация

      Информация

        Посетители, находящиеся в группе Гости, не могут оставлять комментарии в данной новости.

        ↓ Меню




        ↓ Опрос

        Вы добавили сайт в закладки?
        Да
        Нет


        Популярное