.
Авторизация | Регистрация

bitok.xyz

» » Инкогнито / Incognito (1997) WEB-DLRip [H.264] торрент скачать бесплатно


    Инкогнито / Incognito (1997) WEB-DLRip [H.264] торрент скачать бесплатно

    Дата: 28-10-2019, 05:00 | .torrent скачали: 0

    Инкогнито / Incognito (1997) WEB-DLRip [H.264]Производство: США/Morgan Creek Productions
    Жанр: Триллер, Криминал
    Режиссер: Джон Бэдэм
    Продюсер: Джеймс Дж. Робинсон, Джоеп Банненберг, Гари Барбер

    Актеры
    Джейсон Патрик, Ирен Жакоб, Томас Локъер, Иэн Ричардсон, Саймон Чэндлер, Пип Торренс, Майкл Кокрейн, Род Стайгер, Того Игава, Джозеф Блэтчли, Пол Бреннен, Оливье Пьер

    Описание

    Гарри — талантливый художник. Его работы висят во многих частных коллекциях. Но имя Гарри известно лишь в очень узких кругах. Он работает инкогнито, а все его картины — копии великих мастеров. Получив заказ нарисовать картину Рембрандта за 500 тысяч долларов, Гарри решил, что на эти деньги начнет новую, честную жизнь.
    Заказ был выполнен блестяще, и ни один эксперт не смог распознать подделки. Но заказчики не захотели платить и обвинили Гарри в убийстве, которое он не совершал, и в похищении бесценного полотна, которое он сам же и нарисовал.
    Спасаясь от полиции, Гарри берет в заложницы лучшую в мире специалистку по Рембрандту — Марике, чтобы с ее помощью доказать, что он не вор и убийца, а обыкновенный мошенник…

    Возраст: 18+ (зрителям, достигшим 18 лет. запрещено для детей)
    Рейтинг MPAA: R (лицам до 17 лет обязательно присутствие взрослого)
    Релиз от: Охрана (NNMCLUB)
    Продолжительность: 01: 47: 04
    Качество видео: WEB-DLRip
    Перевод: Дублированный, двуголосый профессиональный
    Субтитры: Английские (Full, SDH)
    Видео: AVC/H.264, 1024x432, ~2850 Kbps
    Аудио 1: AC3, 2 ch, 192 Kbps, 48.0 kHz – Русский Dub, Варус-видео
    Аудио 2: AC3, 2 ch, 224 Kbps, 48.0 kHz – Русский DVO, Екатеринбург Арт
    Аудио 3: AC3, 2 ch, 192 Kbps, 48.0 kHz – Английский
    Общее
    Уникальный идентификатор : 233426816669627972246804768920038644889 (0xAF9C5E9E69EE28569085210961C59C99)
    Полное имя : B: DownloadsИнкогнито. 1997. NNMCLUB.mkv
    Формат : Matroska
    Версия формата : Version 4/Version 2
    Размер файла : 2, 59 Гбайт
    Продолжительность : 1 ч. 47 м.
    Общий поток : 3460 Кбит/сек
    Дата кодирования : UTC 2019-10-27 00: 11: 32
    Программа кодирования : mkvmerge v7.9.0 (\'Birds\') 64bit
    Библиотека кодирования : libebml v1.3.1 + libmatroska v1.4.2
    Видео
    Идентификатор : 1
    Формат : AVC
    Формат/Информация : Advanced Video Codec
    Профиль формата : High@L4.1
    Настройки формата : CABAC/12 Ref Frames
    Параметр CABAC формата : Да
    Параметр RefFrames формата : 12 кадров
    Идентификатор кодека : V_MPEG4/ISO/AVC
    Продолжительность : 1 ч. 47 м.
    Битрейт : 2850 Кбит/сек
    Ширина : 1024 пикселя
    Высота : 432 пикселя
    Соотношение сторон : 2, 40: 1
    Режим частоты кадров : Постоянный
    Частота кадров : 23, 976 (24000/1001) кадра/сек
    Цветовое пространство : YUV
    Субдискретизация насыщенности : 4: 2: 0
    Битовая глубина : 8 бит
    Тип развёртки : Прогрессивная
    Бит/(Пиксели*Кадры) : 0.269
    Размер потока : 2, 13 Гбайт (82%)
    Заголовок : Incognito
    Библиотека кодирования : x264 core 146 r2538 121396c
    Настройки программы : cabac=1/ref=12/deblock=1: -1: -1/analyse=0x3: 0x113/me=umh/subme=10/psy=1/psy_rd=1.00: 0.10/mixed_ref=1/me_range=32/chroma_me=1/trellis=2/8x8dct=1/cqm=0/deadzone=21, 11/fast_pskip=0/chroma_qp_offset=-3/threads=6/lookahead_threads=1/sliced_threads=0/nr=0/decimate=0/interlaced=0/bluray_compat=0/constrained_intra=0/bframes=7/b_pyramid=2/b_adapt=2/b_bias=0/direct=3/weightb=1/open_gop=0/weightp=2/keyint=250/keyint_min=25/scenecut=40/intra_refresh=0/rc_lookahead=60/rc=2pass/mbtree=1/bitrate=2850/ratetol=1.0/qcomp=0.60/qpmin=0/qpmax=69/qpstep=4/cplxblur=20.0/qblur=0.5/vbv_maxrate=14000/vbv_bufsize=14000/nal_hrd=none/filler=0/ip_ratio=1.40/aq=1: 1.00
    Язык : English
    Default : Да
    Forced : Нет
    Аудио #1
    Идентификатор : 2
    Формат : AC-3
    Формат/Информация : Audio Coding 3
    Идентификатор кодека : A_AC3
    Продолжительность : 1 ч. 46 м.
    Вид битрейта : Постоянный
    Битрейт : 192 Кбит/сек
    Каналы : 2 канала
    Расположение каналов : Front: L R
    Частота : 48, 0 КГц
    Частота кадров : 31, 250 кадров/сек (1536 SPF)
    Битовая глубина : 16 бит
    Метод сжатия : С потерями
    Размер потока : 147 Мбайт (6%)
    Заголовок : Дублированный, Варус-видео
    Язык : Russian
    ServiceKind/String : Complete Main
    Default : Да
    Forced : Нет
    Аудио #2
    Идентификатор : 3
    Формат : AC-3
    Формат/Информация : Audio Coding 3
    Идентификатор кодека : A_AC3
    Продолжительность : 1 ч. 47 м.
    Вид битрейта : Постоянный
    Битрейт : 224 Кбит/сек
    Каналы : 2 канала
    Расположение каналов : Front: L R
    Частота : 48, 0 КГц
    Частота кадров : 31, 250 кадров/сек (1536 SPF)
    Битовая глубина : 16 бит
    Метод сжатия : С потерями
    Размер потока : 172 Мбайт (6%)
    Заголовок : Двухголосый закадровый, Екатеринбург Арт
    Язык : Russian
    ServiceKind/String : Complete Main
    Default : Нет
    Forced : Нет
    Аудио #3
    Идентификатор : 4
    Формат : AC-3
    Формат/Информация : Audio Coding 3
    Идентификатор кодека : A_AC3
    Продолжительность : 1 ч. 47 м.
    Вид битрейта : Постоянный
    Битрейт : 192 Кбит/сек
    Каналы : 2 канала
    Расположение каналов : Front: L R
    Частота : 48, 0 КГц
    Частота кадров : 31, 250 кадров/сек (1536 SPF)
    Битовая глубина : 16 бит
    Метод сжатия : С потерями
    Размер потока : 147 Мбайт (6%)
    Заголовок : Английский
    Язык : English
    ServiceKind/String : Complete Main
    Default : Нет
    Forced : Нет
    Текст #1
    Идентификатор : 5
    Формат : UTF-8
    Идентификатор кодека : S_TEXT/UTF8
    Идентификатор кодека/Информация : UTF-8 Plain Text
    Продолжительность : 1 ч. 40 м.
    Битрейт : 65 бит/сек
    ElementCount : 1660
    Размер потока : 48, 4 Кбайт (0%)
    Заголовок : Full
    Язык : English
    Default : Нет
    Forced : Нет
    Текст #2
    Идентификатор : 6
    Формат : UTF-8
    Идентификатор кодека : S_TEXT/UTF8
    Идентификатор кодека/Информация : UTF-8 Plain Text
    Продолжительность : 1 ч. 42 м.
    Битрейт : 67 бит/сек
    ElementCount : 1618
    Размер потока : 50, 5 Кбайт (0%)
    Заголовок : SDH
    Язык : English
    Default : Нет
    Forced : Нет

    Скриншоты для ознакомления




    Все одноименные релизы в Клубе
    Время раздачи: с 13: 00 до 01: 00 МСК, выходные круглосуточно (до появления первых 3-5 скачавших)

    Онлайн видео Инкогнито



    Инкогнито/Incognito (1997) WEB-DLRip [H.264]
    Рейтинг →
     (голосов: 1, оценка 3/5, голосовать можно 1 раз )

    Другие торренты по теме:

  • Инкогнито / Incognito (1997) DVDRip [H.264]


    • Комментарии (0):

      Информация

      Информация

        Посетители, находящиеся в группе Гости, не могут оставлять комментарии в данной новости.

        ↓ Меню




        ↓ Опрос

        Вы добавили сайт в закладки?
        Да
        Нет


        Популярное