.
Авторизация | Регистрация

bitok.xyz

» » Дублинские убийства / Dublin Murders (2019) WEB-DL [H.264 / 1080p] (сезон 1, серии 1-4 из 8) ТShows (обновляемая) торрент скачать бесплатно


    Дублинские убийства / Dublin Murders (2019) WEB-DL [H.264 / 1080p] (сезон 1, серии 1-4 из 8) ТShows (обновляемая) торрент скачать бесплатно

    Дата: 28-10-2019, 05:00 | .torrent скачали: 0

    Дублинские убийства / Dublin Murders (2019) WEB-DL [H.264 / 1080p] (сезон 1, серии 1-4 из 8) ТShows (обновляемая)Производство: Великобритания/Euston Films, Element Pictures
    Жанр: драма, криминал
    Режиссер: Джон Хэйес, Сол Дибб, Ребекка Гатуард

    Актеры
    Киллиан Скотт, Том Вон-Лолор, Сара Грин, Мо Данфорд, Юджин О’Харе, Леа Макнамара, Йен Кенни, Конлет Хилл и др.

    Описание

    Главный герой — детектив Роб Райли. Главная героиня сериала — напарница Роба, Кесси Мэдокс. Им вдвоем нужно раскрыть дело об убийстве юной девушки. Ее тело нашли на окраине Дублина. Через короткое время, Робу снова дают новое задание: расследование о пропавших детях.
    Роб Райли чем больше углубляется в работу с похожими сюжетами, тем сильнее открывает в себе внутренние страхи и неуверенности. И как только расследование начинает подходить к логическому завершению, то Робу и Кесси нужно проходить все испытания и проверку на прочность, чтобы понять истинные отношения друг к другу…

    Дата мировой премьеры: 14 октября 2019
    Релиз от: FilmsClub
    Продолжительность: ~00: 58: 00 серия
    Качество видео: WEB-DL
    Перевод: Многоголосый, профессиональный (ТShows )
    Субтитры: английский (кроме 1 серии)
    Видео: AVC/H.264, 1920х960, ~9356 Kbps
    Аудио 1: AC3, 6 ch, 384 Kbps — русский
    Аудио 2: E-AC3, 6 ch, 640 kbps — английский
    Общее
    Уникальный идентификатор : 58624185356951411095968186489205246956 (0x2C1A9B7EDB414DB8FABAF58EF5654BEC)
    Полное имя : /Volumes/HDD/Movies/NNMC/Dublin.Murders.S01.1080p.TVShows/Dublin.Murders.S01E01.1080p.TVShows.mkv
    Формат : Matroska
    Версия формата : Version 4
    Размер файла : 4, 20 Гбайт
    Продолжительность : 57 м. 57 с.
    Режим общего битрейта : Постоянный
    Общий поток : 10, 4 Мбит/сек
    Дата кодирования : UTC 2019-10-18 14: 11: 53
    Программа кодирования : mkvmerge v33.1.0 (\'Primrose\') 64-bit
    Библиотека кодирования : libebml v1.3.7 + libmatroska v1.5.0
    Видео
    Идентификатор : 1
    Формат : AVC
    Формат/Информация : Advanced Video Codec
    Профиль формата : High@L4
    Настройки формата : CABAC/4 Ref Frames
    Параметр CABAC формата : Да
    Параметр ReFrames формата : 4 кадра
    Идентификатор кодека : V_MPEG4/ISO/AVC
    Продолжительность : 57 м. 57 с.
    Вид битрейта : Постоянный
    Битрейт : 9356 Кбит/сек
    Номинальный битрейт : 10000 Кбит/сек
    Ширина : 1920 пикселей
    Высота : 960 пикселей
    Соотношение сторон : 2, 000
    Режим частоты кадров : Постоянный
    Частота кадров : 23, 976 (24000/1001) кадра/сек
    Цветовое пространство : YUV
    Субдискретизация насыщенности : 4: 2: 0
    Битовая глубина : 8 бит
    Тип развёртки : Прогрессивная
    Бит/(Пиксели*Кадры) : 0.212
    Размер потока : 3, 79 Гбайт (90%)
    Default : Да
    Forced : Нет
    Цветовой диапазон : Limited
    Основные цвета : BT.709
    Характеристики трансфера : BT.709
    Коэффициенты матрицы : BT.709
    Аудио #1
    Идентификатор : 2
    Формат : AC-3
    Формат/Информация : Audio Coding 3
    Коммерческое название : Dolby Digital
    Идентификатор кодека : A_AC3
    Продолжительность : 57 м. 57 с.
    Вид битрейта : Постоянный
    Битрейт : 384 Кбит/сек
    Каналы : 6 каналов
    Channel layout : L R C LFE Ls Rs
    Частота : 48, 0 КГц
    Частота кадров : 31, 250 кадров/сек (1536 SPF)
    Битовая глубина : 16 бит
    Метод сжатия : С потерями
    Размер потока : 159 Мбайт (4%)
    Заголовок : TVShows
    Язык : Russian
    Service kind : Complete Main
    Default : Да
    Forced : Да
    Аудио #2
    Идентификатор : 3
    Формат : E-AC-3
    Формат/Информация : Enhanced AC-3
    Коммерческое название : Dolby Digital Plus
    Идентификатор кодека : A_EAC3
    Продолжительность : 57 м. 57 с.
    Вид битрейта : Постоянный
    Битрейт : 640 Кбит/сек
    Каналы : 6 каналов
    Channel layout : L R C LFE Ls Rs
    Частота : 48, 0 КГц
    Частота кадров : 31, 250 кадров/сек (1536 SPF)
    Метод сжатия : С потерями
    Размер потока : 265 Мбайт (6%)
    Заголовок : Original
    Язык : English
    Service kind : Complete Main
    Default : Нет
    Forced : Нет

    Скриншоты для ознакомления



    Все одноименные релизы в Клубе
    Время раздачи: 24/7 (до появления первых 3-5 скачавших)

    Онлайн видео Дублинские убийства



    Дублинские убийства/Dublin Murders (2019) WEB-DL [H.264/1080p] (сезон 1, серии 1-4 из 8) ТShows (обновляемая)
    Рейтинг →
     (голосов: 1, оценка 4/5, голосовать можно 1 раз )

    Другие торренты по теме:



      Комментарии (0):

      Информация

      Информация

        Посетители, находящиеся в группе Гости, не могут оставлять комментарии в данной новости.

        ↓ Меню




        ↓ Опрос

        Вы добавили сайт в закладки?
        Да
        Нет


        Популярное