.
Авторизация | Регистрация

bitok.xyz

» » Старая школа / Обученные / Schooled (2019) WEB-DL [H.264 / 1080p] (сезон 2, серии 1-2 из 13) HDRezka Studio (обновляемая) торрент скачать бесплатно


    Старая школа / Обученные / Schooled (2019) WEB-DL [H.264 / 1080p] (сезон 2, серии 1-2 из 13) HDRezka Studio (обновляемая) торрент скачать бесплатно

    Дата: 28-10-2019, 05:00 | .torrent скачали: 0

    Старая школа / Обученные / Schooled (2019) WEB-DL [H.264 / 1080p] (сезон 2, серии 1-2 из 13) HDRezka Studio (обновляемая)Производство: США/ABC Studios, Adam F. Goldberg Productions, Marc Firek Productions
    Жанр: комедия
    Режиссер: Дэвид Катценберг, Джей Чандрашекхар, Лиа Томпсон

    Актеры
    Тим Медоуз, Брайан Коллен, ЭйДжей Мичалка, Бретт Дир, Израэль Джонсон, Леннон Парэм, Альфонсо МакОли, Даллас Эдвардс Джеффри, Кейд Росс Браун, Кристиан Геринг

    Описание

    Директор Джон Гласкотт, тренер Рик Меллор, учитель английского Чарли Браун и бывшая выпускница Лейни Льюис — настоящие кумиры учеников академии. Они учат их уму разуму и помогают справиться с неуверенностью в себе, проблемами со сверстниками и жизненными трудностями, параллельно устраивая свою личную жизнь и попадая в неловкие ситуации.

    Возраст: 16+ (зрителям, достигшим 16 лет)
    Релиз от: OLEG270877
    Продолжительность: ~00: 30: 00 серия
    Качество видео: WEB-DL
    Перевод: Многоголосый профессиональный -HDRezka Studio
    Субтитры: Английские
    Видео: AVC/H.264, 1920x1080, ~10000 Kbps
    Аудио 1: E-AC3, 6 ch, 640 kbps — русский
    Аудио 2: E-AC3, 6 ch, 640 kbps — английский
    Общее
    Уникальный идентификатор : 315826812296334205615657395868484145590 (0xED9A0810A88FD23BBC295984E72A91B6)
    Полное имя : Schooled.S02Е01.1080p.AMZN.WEB-DL.HDRezka.mkv
    Формат : Matroska
    Версия формата : Version 4
    Размер файла : 1, 64 Гбайт
    Продолжительность : 21 м. 32 с.
    Общий поток : 10, 9 Мбит/сек
    Дата кодирования : UTC 2019-10-04 08: 10: 14
    Программа кодирования : mkvmerge v37.0.0 (\'Leave It\') 64-bit
    Библиотека кодирования : libebml v1.3.9 + libmatroska v1.5.2
    Видео
    Идентификатор : 1
    Формат : AVC
    Формат/Информация : Advanced Video Codec
    Профиль формата : High@L4
    Настройки формата : CABAC/4 Ref Frames
    Параметр CABAC формата : Да
    Параметр RefFrames формата : 4 кадра
    Идентификатор кодека : V_MPEG4/ISO/AVC
    Продолжительность : 21 м. 32 с.
    Вид битрейта : Постоянный
    Битрейт : 10000 Кбит/сек
    Ширина : 1920 пикселей
    Высота : 1080 пикселей
    Соотношение сторон : 16: 9
    Режим частоты кадров : Постоянный
    Частота кадров : 23, 976 (24000/1001) кадра/сек
    Цветовое пространство : YUV
    Субдискретизация насыщенности : 4: 2: 0
    Битовая глубина : 8 бит
    Тип развёртки : Прогрессивная
    Бит/(Пиксели*Кадры) : 0.201
    Размер потока : 1, 44 Гбайт (88%)
    Язык : English
    Default : Да
    Forced : Нет
    Цветовой диапазон : Limited
    Основные цвета : BT.709
    Характеристики трансфера : BT.709
    Коэффициенты матрицы : BT.709
    Аудио #1
    Идентификатор : 2
    Формат : E-AC-3
    Формат/Информация : Enhanced AC-3
    Коммерческое название : Dolby Digital Plus
    Идентификатор кодека : A_EAC3
    Продолжительность : 21 м. 32 с.
    Вид битрейта : Постоянный
    Битрейт : 640 Кбит/сек
    Каналы : 6 каналов
    ChannelLayout : L R C LFE Ls Rs
    Частота : 48, 0 КГц
    Частота кадров : 31, 250 кадров/сек (1536 SPF)
    Метод сжатия : С потерями
    Размер потока : 98, 6 Мбайт (6%)
    Заголовок : HDRezka
    Язык : Russian
    Default : Да
    Forced : Нет
    Аудио #2
    Идентификатор : 3
    Формат : E-AC-3
    Формат/Информация : Enhanced AC-3
    Коммерческое название : Dolby Digital Plus
    Идентификатор кодека : A_EAC3
    Продолжительность : 21 м. 32 с.
    Вид битрейта : Постоянный
    Битрейт : 640 Кбит/сек
    Каналы : 6 каналов
    ChannelLayout : L R C LFE Ls Rs
    Частота : 48, 0 КГц
    Частота кадров : 31, 250 кадров/сек (1536 SPF)
    Метод сжатия : С потерями
    Размер потока : 98, 6 Мбайт (6%)
    Язык : English
    Default : Нет
    Forced : Нет
    Текст
    Идентификатор : 4
    Формат : UTF-8
    Идентификатор кодека : S_TEXT/UTF8
    Идентификатор кодека/Информация : UTF-8 Plain Text
    Продолжительность : 21 м. 24 с.
    Битрейт : 140 бит/сек
    ElementCount : 606
    Размер потока : 22, 0 Кбайт (0%)
    Заголовок : English
    Язык : English
    Default : Нет
    Forced : Нет


    Онлайн видео Старая школа



    Старая школа/Обученные/Schooled (2019) WEB-DL [H.264/1080p] (сезон 2, серии 1-2 из 13) HDRezka Studio (обновляемая)
    Рейтинг →
     (голосов: 1, оценка 4/5, голосовать можно 1 раз )

    Другие торренты по теме:

  • В. П. Беляев | Старая крепость. Трилогия [2 книги] (1971) [DJVU] скачать через торрент бесплатно
  • Подборка книг | Старая недобрая...[9 книг] (2013-2015) [FB2] скачать через торрент бесплатно
  • Сергей Крутилин | Старая скворечня [сборник] (1973) [PDF, DJVU] скачать через торрент бесплатно
  • VA - Старая пластинка: Ритм-н-Блюз (2013) [MP3|256 кб / с] <RnB>
  • Старая пластинка. Валентина Толкунова (2013) SATRip
  • Старая пластинка. Михаил Круг (2013) SATRip
  • Старая пластинка. Сергей Коржуков (2012) SATRip
  • Леонид Азбель и Катенька Дроздовская - Старая Одесса (2001) [MP3|320 кб / с] <Шансон>


    • Комментарии (0):

      Информация

      Информация

        Посетители, находящиеся в группе Гости, не могут оставлять комментарии в данной новости.

        ↓ Меню




        ↓ Опрос

        Вы добавили сайт в закладки?
        Да
        Нет


        Популярное