.
Авторизация | Регистрация

bitok.xyz

» » Синяя бездна 2 / 47 Meters Down: Uncaged (2019) WEB-DLRip торрент скачать бесплатно


    Синяя бездна 2 / 47 Meters Down: Uncaged (2019) WEB-DLRip торрент скачать бесплатно

    Дата: 29-10-2019, 05:00 | .torrent скачали: 0

    Синяя бездна 2 / 47 Meters Down: Uncaged (2019) WEB-DLRipПроизводство: Великобритания, США/Entertainment Studios Motion Pictures, thefyzz
    Жанр: Ужасы, триллер, драма, приключения
    Режиссер: Йоханнес Робертс

    Актеры
    Софи Нелисс, Корина Фокс, Бриэнн Тджу, Систин Роуз Сталлоне, Брэк Бэссинджер, Ниа Лонг, Джон Корбетт, Дави Сантос, Кайлин Рамбо, Аксель Мансилла

    Описание

    Три подруги отправляются исследовать подводный разрушенный город, но вскоре выясняют, что посмотреть на руины приплыли не они одни. Запланированное развлечение оборачивается кошмаром — теперь ныряльщицам придется спасаться от кровожадных акул.

    Дата мировой премьеры: 15 августа 2019
    Дата премьеры в России: 15 августа 2019

    Продолжительность: 01: 29: 38
    Качество видео: WEB-DLRip
    Перевод: Дублированный (iTunes)
    Субтитры: Русские (Full)
    Видео: XviD, 720x304, ~1940 Kbps
    Аудио: AC-3, 6 ch, 384 Kbps
    Общее
    Полное имя : D: NNMСиняя бездна47.Meters.Down.Uncaged.2019.WEB-DLRip.avi
    Формат : AVI
    Формат/Информация : Audio Video Interleave
    Размер файла : 1, 46 Гбайт
    Продолжительность : 1 ч. 29 м.
    Общий поток : 2333 Кбит/сек
    Программа кодирования : VirtualDubMod 1.5.10.3 |www.virtualdub-fr.org|| (build 2550/release)
    Библиотека кодирования : VirtualDubMod build 2550/release
    Видео
    Идентификатор : 0
    Формат : MPEG-4 Visual
    Профиль формата : Advanced Simple@L5
    Настройки формата : BVOP1/Custom Matrix
    Параметр BVOP формата : 1
    Параметр QPel формата : Нет
    Параметр GMC формата : Без точки перехода
    Параметр матрицы формата : Выборочная
    Идентификатор кодека : XVID
    Идентификатор кодека/Подсказка : XviD
    Продолжительность : 1 ч. 29 м.
    Битрейт : 1940 Кбит/сек
    Ширина : 720 пикселей
    Высота : 304 пикселя
    Соотношение сторон : 2, 35: 1
    Частота кадров : 24, 000 кадра/сек
    Цветовое пространство : YUV
    Субдискретизация насыщенности : 4: 2: 0
    Битовая глубина : 8 бит
    Тип развёртки : Прогрессивная
    Метод сжатия : С потерями
    Бит/(Пиксели*Кадры) : 0.369
    Размер потока : 1, 21 Гбайт (83%)
    Библиотека кодирования : XviD 73
    Аудио
    Идентификатор : 1
    Формат : AC-3
    Формат/Информация : Audio Coding 3
    Коммерческое название : Dolby Digital
    Идентификатор кодека : 2000
    Продолжительность : 1 ч. 29 м.
    Вид битрейта : Постоянный
    Битрейт : 384 Кбит/сек
    Каналы : 6 каналов
    ChannelLayout : L R C LFE Ls Rs
    Частота : 48, 0 КГц
    Частота кадров : 31, 250 кадров/сек (1536 SPF)
    Битовая глубина : 16 бит
    Метод сжатия : С потерями
    Размер потока : 246 Мбайт (16%)
    Выравнивание : Разделение по промежуткам
    Продолжительность промежутка : 42 мс. (1, 00 видеокадр)
    Время предзагрузки промежутка : 500 мс.
    ServiceKind/String : Complete Main

    Скриншоты для ознакомления



    Все одноименные релизы в Клубе Время раздачи: 24/7 (до появления первых 3-5 скачавших)

    Онлайн видео Синяя бездна 2



    Синяя бездна 2/47 Meters Down: Uncaged (2019) WEB-DLRip
    Рейтинг →
     (голосов: 1, оценка 4/5, голосовать можно 1 раз )

    Другие торренты по теме:

  • Синяя бездна / 47 Meters Down (2017) DVDRip [AD]
  • Синяя бездна / 47 Meters Down (2017) DVDRip [MVO]
  • Синяя бездна / 47 Meters Down (2017) WEB-DLRip
  • Синяя бездна / 47 Meters Down (2017) WEB-DL [H.264 / 1080p-LQ]
  • Синяя бездна / 47 Meters Down (2017) WEB-DL [1080p] ATV
  • Синяя бездна / 47 Meters Down (2017) BDRip [H264 / 720p]
  • Синяя бездна / 47 Meters Down (2017) BDRip [H264 / 1080p]
  • Синяя бездна / 47 Meters Down (2017) BDRemux [H264 / 1080p]


    • Комментарии (0):

      Информация

      Информация

        Посетители, находящиеся в группе Гости, не могут оставлять комментарии в данной новости.

        ↓ Меню




        ↓ Опрос

        Вы добавили сайт в закладки?
        Да
        Нет


        Популярное