.
Авторизация | Регистрация

bitok.xyz

» » Синяя бездна 2 / 47 Meters Down: Uncaged (2019) WEB-DL [H.264 / 1080p-LQ] торрент скачать бесплатно


    Синяя бездна 2 / 47 Meters Down: Uncaged (2019) WEB-DL [H.264 / 1080p-LQ] торрент скачать бесплатно

    Дата: 29-10-2019, 05:00 | .torrent скачали: 0

    Синяя бездна 2 / 47 Meters Down: Uncaged (2019) WEB-DL [H.264 / 1080p-LQ]Производство: Великобритания, США/Entertainment Studios Motion Pictures, thefyzz
    Жанр: Ужасы, триллер, драма, приключения
    Режиссер: Йоханнес Робертс

    Актеры
    Софи Нелисс, Корина Фокс, Бриэнн Тджу, Систин Роуз Сталлоне, Брэк Бэссинджер, Ниа Лонг, Джон Корбетт, Дави Сантос, Кайлин Рамбо, Аксель Мансилла

    Описание

    Три подруги отправляются исследовать подводный разрушенный город, но вскоре выясняют, что посмотреть на руины приплыли не они одни. Запланированное развлечение оборачивается кошмаром — теперь ныряльщицам придется спасаться от кровожадных акул.

    Дата мировой премьеры: 15 августа 2019
    Дата премьеры в России: 15 августа 2019

    Релиз от: селезень
    Продолжительность: 01: 29: 38
    Качество видео: WEB-DL
    Перевод: Дублированный (iTunes)
    Субтитры: Русские (Full)
    Видео: AVC/H.264, 1920x804, ~4504 Kbps
    Аудио #1: AC3, 6 ch, 384 Kbps - Русский
    Аудио #2: AC3, 6 ch, 384 Kbps - Английский
    Общее
    Уникальный идентификатор : 108688652219381815961072929952020935884 (0x51C4AC493B873DCD0E1F92BCDE75B4CC)
    Полное имя : D: NNMСиняя бездна47.Meters.Down.Uncaged.2019.WEB-DL.1080p-LQ.mkv
    Формат : Matroska
    Версия формата : Version 4
    Размер файла : 3, 30 Гбайт
    Продолжительность : 1 ч. 29 м.
    Общий поток : 5274 Кбит/сек
    Название фильма : 47 Meters Down: Uncaged 2019 from селезень
    Дата кодирования : UTC 2019-10-28 20: 36: 27
    Программа кодирования : mkvmerge v22.0.0 (\'At The End Of The World\') 64-bit
    Библиотека кодирования : libebml v1.3.5 + libmatroska v1.4.8
    Видео
    Идентификатор : 1
    Формат : AVC
    Формат/Информация : Advanced Video Codec
    Профиль формата : High@L4
    Настройки формата : CABAC/5 Ref Frames
    Параметр CABAC формата : Да
    Параметр RefFrames формата : 5 кадров
    Идентификатор кодека : V_MPEG4/ISO/AVC
    Продолжительность : 1 ч. 29 м.
    Битрейт : 4504 Кбит/сек
    Ширина : 1920 пикселей
    Высота : 804 пикселя
    Соотношение сторон : 2, 40: 1
    Режим частоты кадров : Постоянный
    Частота кадров : 24, 000 кадра/сек
    Цветовое пространство : YUV
    Субдискретизация насыщенности : 4: 2: 0
    Битовая глубина : 8 бит
    Тип развёртки : Прогрессивная
    Бит/(Пиксели*Кадры) : 0.122
    Размер потока : 2, 82 Гбайт (85%)
    Язык : English
    Default : Да
    Forced : Нет
    Цветовой диапазон : Limited
    Основные цвета : BT.709
    Характеристики трансфера : BT.709
    Коэффициенты матрицы : BT.709
    Аудио #1
    Идентификатор : 2
    Формат : AC-3
    Формат/Информация : Audio Coding 3
    Коммерческое название : Dolby Digital
    Идентификатор кодека : A_AC3
    Продолжительность : 1 ч. 29 м.
    Вид битрейта : Постоянный
    Битрейт : 384 Кбит/сек
    Каналы : 6 каналов
    ChannelLayout : L R C LFE Ls Rs
    Частота : 48, 0 КГц
    Частота кадров : 31, 250 кадров/сек (1536 SPF)
    Битовая глубина : 16 бит
    Метод сжатия : С потерями
    Задержка видео : -42 мс.
    Размер потока : 246 Мбайт (7%)
    Заголовок : iTunes
    Язык : Russian
    ServiceKind/String : Complete Main
    Default : Да
    Forced : Да
    Аудио #2
    Идентификатор : 3
    Формат : AC-3
    Формат/Информация : Audio Coding 3
    Коммерческое название : Dolby Digital
    Идентификатор кодека : A_AC3
    Продолжительность : 1 ч. 29 м.
    Вид битрейта : Постоянный
    Битрейт : 384 Кбит/сек
    Каналы : 6 каналов
    ChannelLayout : L R C LFE Ls Rs
    Частота : 48, 0 КГц
    Частота кадров : 31, 250 кадров/сек (1536 SPF)
    Битовая глубина : 16 бит
    Метод сжатия : С потерями
    Задержка видео : -42 мс.
    Размер потока : 246 Мбайт (7%)
    Заголовок : Original
    Язык : English
    ServiceKind/String : Complete Main
    Default : Нет
    Forced : Нет
    Текст
    Идентификатор : 4
    Формат : UTF-8
    Идентификатор кодека : S_TEXT/UTF8
    Идентификатор кодека/Информация : UTF-8 Plain Text
    Продолжительность : 1 ч. 16 м.
    Битрейт : 59 бит/сек
    ElementCount : 789
    Размер потока : 33, 6 Кбайт (0%)
    Заголовок : Full
    Язык : Russian
    Default : Нет
    Forced : Нет
    Меню
    00: 00: 00.000 : en: Глава 1
    00: 05: 21.291 : en: Глава 2
    00: 12: 18.665 : en: Глава 3
    00: 19: 37.873 : en: Глава 4
    00: 26: 12.331 : en: Глава 5
    00: 36: 57.371 : en: Глава 6
    00: 44: 21.287 : en: Глава 7
    00: 51: 40.620 : en: Глава 8
    01: 00: 39.078 : en: Глава 9
    01: 07: 42.744 : en: Глава 10
    01: 14: 57.077 : en: Глава 11

    Скриншоты для ознакомления



    Все одноименные релизы в Клубе Время раздачи: 24/7 (до появления первых 3-5 скачавших)

    Онлайн видео Синяя бездна 2



    Синяя бездна 2/47 Meters Down: Uncaged (2019) WEB-DL [H.264/1080p-LQ]
    Рейтинг →
     (голосов: 1, оценка 4/5, голосовать можно 1 раз )

    Другие торренты по теме:

  • Синяя бездна / 47 Meters Down (2017) DVDRip [AD]
  • Синяя бездна / 47 Meters Down (2017) DVDRip [MVO]
  • Синяя бездна / 47 Meters Down (2017) WEB-DLRip
  • Синяя бездна / 47 Meters Down (2017) WEB-DL [H.264 / 1080p-LQ]
  • Синяя бездна / 47 Meters Down (2017) WEB-DL [1080p] ATV
  • Синяя бездна / 47 Meters Down (2017) BDRip [H264 / 720p]
  • Синяя бездна / 47 Meters Down (2017) BDRip [H264 / 1080p]
  • Синяя бездна / 47 Meters Down (2017) BDRemux [H264 / 1080p]


    • Комментарии (0):

      Информация

      Информация

        Посетители, находящиеся в группе Гости, не могут оставлять комментарии в данной новости.

        ↓ Меню




        ↓ Опрос

        Вы добавили сайт в закладки?
        Да
        Нет


        Популярное