.
Авторизация | Регистрация

bitok.xyz

» » Герой (2019) WEB-DL [H.264 / 1080p-LQ] торрент скачать бесплатно


    Герой (2019) WEB-DL [H.264 / 1080p-LQ] торрент скачать бесплатно

    Дата: 29-10-2019, 05:00 | .torrent скачали: 8

    Герой (2019) WEB-DL [H.264 / 1080p-LQ]Производство: Россия, Телеканал РОССИЯ 1, Карго Фильм
    Жанр: Триллер, Комедия, Боевик, Криминал
    Режиссер: Карен Оганесян
    Продюсер: Карен Оганесян, Полина Иванова

    Актеры
    Александр Петров, Владимир Машков, Светлана Ходченкова, Ян Алабушев, Константин Лавроненко, Марина Петренко, Анастасия Тодореску, Тобиас Аспелин, Адам Джеймс Маскин

    Описание

    15 лет назад Андрей под руководством своего отца, полковника Родина, прошел обучение в секретной спецшколе, где из подростков готовили агентов Службы внешней разведки. Когда экспериментальный проект закрыли, Андрей сжёг мосты, остался в Европе и старался не вспоминать о прошлом. Но однажды ему звонит отец, которого все считали погибшим. Тот сообщает, что на Андрея открыта охота, но кто решил его уничтожить — неизвестно. Спасаясь бегством, он находит Машу, с которой учился в спецшколе. Андрею предстоит пройти через любовь и предательство и узнать об истинных масштабах беспощадной шпионской игры, в которую он оказался втянут поневоле.

    Возраст: 12+ (зрителям, достигшим 12 лет)
    Дата мировой премьеры: 26 сентября 2019
    Дата российской премьеры: 26 сентября 2019, Централ Партнершип
    Релиз от: NNMClub
    Продолжительность: 01: 55: 42
    Качество видео: WEB-DL
    Перевод: Не требуется (русский) iTunes
    Субтитры: Отсутствуют
    Видео: AVC/H.264, 1920x804 (2.40: 1), 4516 kbps
    Аудио: АС3, 6 ch, 48 kHz, 384 Kbps | РусскийОбщее
    Уникальный идентификатор : 229466263761768166907533755435114711125 (0xACA19848C7DA0241A747AFAA55FE4855)
    Полное имя : D: Герой.2019.WEB-DL.1080p.NNMClub.mkv
    Формат : Matroska
    Версия формата : Version 4
    Размер файла : 3, 96 Гбайт
    Продолжительность : 1 ч. 55 м.
    Общий поток : 4902 Кбит/сек
    Название фильма : Герой.2019.WEB-DL.1080p.NNMClub
    Дата кодирования : UTC 2019-10-28 21: 03: 53
    Программа кодирования : mkvmerge v8.3.0 (\'Over the Horizon\') 64bit
    Библиотека кодирования : libebml v1.3.1 + libmatroska v1.4.2
    Видео
    Идентификатор : 1
    Формат : AVC
    Формат/Информация : Advanced Video Codec
    Профиль формата : High@L4
    Настройки формата : CABAC/5 Ref Frames
    Параметр CABAC формата : Да
    Параметр RefFrames формата : 5 кадров
    Идентификатор кодека : V_MPEG4/ISO/AVC
    Продолжительность : 1 ч. 55 м.
    Битрейт : 4516 Кбит/сек
    Ширина : 1920 пикселей
    Высота : 804 пикселя
    Соотношение сторон : 2, 40: 1
    Режим частоты кадров : Постоянный
    Частота кадров : 25, 000 кадров/сек
    Цветовое пространство : YUV
    Субдискретизация насыщенности : 4: 2: 0
    Битовая глубина : 8 бит
    Тип развёртки : Прогрессивная
    Бит/(Пиксели*Кадры) : 0.117
    Размер потока : 3, 65 Гбайт (92%)
    Язык : Russian
    Default : Да
    Forced : Нет
    Цветовой диапазон : Limited
    Основные цвета : BT.709
    Характеристики трансфера : BT.709
    Коэффициенты матрицы : BT.709
    Аудио
    Идентификатор : 2
    Формат : AC-3
    Формат/Информация : Audio Coding 3
    Коммерческое название : Dolby Digital
    Идентификатор кодека : A_AC3
    Продолжительность : 1 ч. 55 м.
    Вид битрейта : Постоянный
    Битрейт : 384 Кбит/сек
    Каналы : 6 каналов
    ChannelLayout : L R C LFE Ls Rs
    Частота : 48, 0 КГц
    Частота кадров : 31, 250 кадров/сек (1536 SPF)
    Битовая глубина : 16 бит
    Метод сжатия : С потерями
    Размер потока : 318 Мбайт (8%)
    Заголовок : iTunes
    Язык : Russian
    ServiceKind/String : Complete Main
    Default : Да
    Forced : Нет
    Меню
    00: 00: 00.000 : ru: Глава 1
    00: 08: 07.120 : ru: Глава 2
    00: 16: 04.800 : ru: Глава 3
    00: 23: 50.720 : ru: Глава 4
    00: 31: 17.320 : ru: Глава 5
    00: 38: 27.800 : ru: Глава 6
    00: 46: 04.680 : ru: Глава 7
    00: 54: 12.240 : ru: Глава 8
    01: 01: 21.440 : ru: Глава 9
    01: 09: 38.200 : ru: Глава 10
    01: 17: 53.200 : ru: Глава 11
    01: 24: 54.760 : ru: Глава 12
    01: 32: 16.360 : ru: Глава 13
    01: 39: 37.440 : ru: Глава 14
    01: 46: 51.680 : ru: Глава 15

    Скриншоты для ознакомления



    Все одноименные релизы в Клубе
    Время раздачи: 24/7 (до появления первых 3-5 скачавших)

    Онлайн видео Герой (2019) WEB-DL [H.264



    Герой (2019) WEB-DL [H.264/1080p-LQ]
    Рейтинг →
     (голосов: 1, оценка 3/5, голосовать можно 1 раз )

    Другие торренты по теме:

  • Гайвер 2: Темный герой / The Guyver: Dark Hero (1994) WEB-DL [H.264 / 720p-LQ] скачать через торрент бесплатно
  • Снайпер: Герой сопротивления / Снайпер: Последний выстрел (2015) WEB-DL [720p] ATV скачать через торрент бесплатно
  • Неуловимые: Последний герой (2015) WEB-DL [H.264 / 1080p-LQ] скачать через торрент бесплатно
  • Американский герой / American Hero (2015) WEB-DL [H.264 / 1080p-LQ] [EN / EN Sub] скачать через торрент бесплатно
  • Герой (2016) WEB-DL [H.264 / 1080p-LQ]
  • Герой (2016) WEB-DL [H.264 / 720p-LQ]
  • Герой (2016) WEB-DL [1080p] ATV
  • СПАРК. Герой Вселенной / Spark: A Space Tail (2016) WEB-DL [H.264 / 1080p-LQ] [EN]


    • Комментарии (0):

      Информация

      Информация

        Посетители, находящиеся в группе Гости, не могут оставлять комментарии в данной новости.

        ↓ Меню




        ↓ Опрос

        Вы добавили сайт в закладки?
        Да
        Нет


        Популярное