.
Авторизация | Регистрация

bitok.xyz

» » Засада / Kalte Fusse (2018) BDRip [H.264 / 720p-LQ] [MVO] [AD] торрент скачать бесплатно


    Засада / Kalte Fusse (2018) BDRip [H.264 / 720p-LQ] [MVO] [AD] торрент скачать бесплатно

    Дата: 29-10-2019, 05:00 | .torrent скачали: 0

    Засада / Kalte Fusse (2018) BDRip [H.264 / 720p-LQ] [MVO] [AD]Производство: Германия, Австрия/Claussen + Putz Filmproduktion, Deutsche Columbia Pictures Film Produktion, Lotus Film
    Жанр: Комедия
    Режиссер: Вольфганг Гроос

    Актеры
    Эмилио Сакрайя, Соня Герхардт, Хайнер Лаутербах, Алекс Червинский, Герти Драссль, Жасмин Герат, Джинн Гурсо, Адам Халайчик, Александр Йованович, Михаэль Островский

    Описание

    Денис вламывается в зимний коттедж богатого австрийского бизнесмена Раймунда, а внучка Раймунда, Шарлотта, принимает его за новую сиделку. Чтобы не попасться, Денис решает подыграть.

    Дата мировой премьеры: 21 ноября 2018
    Продолжительность: 01: 33: 00
    Качество видео: BDRip
    Перевод: Многоголосый закадровый, любительский (AlphaProject)
    Субтитры: Отсутствуют
    Реклама: Присутствует баннер.
    Видео: AVC/H.264, 1280x536, ~5940 Kbps
    Аудио: AC-3, 2 ch, 384 Kbps
    Общее
    Полное имя : D: NNMЗасадаKalte.fusse.2018.BDRip.720p-LQ.mkv
    Формат : Matroska
    Версия формата : Version 2
    Размер файла : 4, 85 Гбайт
    Продолжительность : 1 ч. 33 м.
    Режим общего битрейта : Переменный
    Общий поток : 7473 Кбит/сек
    Программа кодирования : libmatroska 1.4.1
    Библиотека кодирования : SolveigMM Matroska Muxer Version 1.0.1502.31
    Видео
    Идентификатор : 1
    Формат : AVC
    Формат/Информация : Advanced Video Codec
    Профиль формата : High@L4.1
    Настройки формата : CABAC/4 Ref Frames
    Параметр CABAC формата : Да
    Параметр RefFrames формата : 4 кадра
    Идентификатор кодека : V_MPEG4/ISO/AVC
    Продолжительность : 1 ч. 33 м.
    Вид битрейта : Переменный
    Битрейт : 6940 Кбит/сек
    Номинальный битрейт : 7500 Кбит/сек
    Максимальный битрейт : 7500 Кбит/сек
    Ширина : 1280 пикселей
    Высота : 536 пикселей
    Соотношение сторон : 2, 40: 1
    Режим частоты кадров : Постоянный
    Частота кадров : 23, 976 (24000/1001) кадра/сек
    Стандарт вещания : Component
    Цветовое пространство : YUV
    Субдискретизация насыщенности : 4: 2: 0
    Битовая глубина : 8 бит
    Тип развёртки : Прогрессивная
    Бит/(Пиксели*Кадры) : 0.422
    Размер потока : 4, 51 Гбайт (93%)
    Default : Нет
    Forced : Нет
    Цветовой диапазон : Limited
    Основные цвета : BT.709
    Характеристики трансфера : BT.709
    Коэффициенты матрицы : BT.709
    Аудио
    Идентификатор : 2
    Формат : AC-3
    Формат/Информация : Audio Coding 3
    Коммерческое название : Dolby Digital
    Идентификатор кодека : A_AC3
    Продолжительность : 1 ч. 33 м.
    Вид битрейта : Постоянный
    Битрейт : 384 Кбит/сек
    Каналы : 2 канала
    ChannelLayout : L R
    Частота : 48, 0 КГц
    Частота кадров : 31, 250 кадров/сек (1536 SPF)
    Битовая глубина : 16 бит
    Метод сжатия : С потерями
    Размер потока : 255 Мбайт (5%)
    Язык : Russian
    ServiceKind/String : Complete Main
    Default : Нет
    Forced : Нет

    Скриншоты для ознакомления



    Все одноименные релизы в Клубе Время раздачи: 24/7 (до появления первых 3-5 скачавших)

    Онлайн видео Засада



    Засада/Kalte Fusse (2018) BDRip [H.264/720p-LQ] [MVO] [AD]
    Рейтинг →
     (голосов: 1, оценка 3/5, голосовать можно 1 раз )

    Другие торренты по теме:

  • Засада / Kalte Fusse (2018) HDRip [MVO] [AD]


    • Комментарии (0):

      Информация

      Информация

        Посетители, находящиеся в группе Гости, не могут оставлять комментарии в данной новости.

        ↓ Меню




        ↓ Опрос

        Вы добавили сайт в закладки?
        Да
        Нет


        Популярное