.
Авторизация | Регистрация

bitok.xyz

» » Девушка с третьего этажа / Girl on the Third Floor (2019) WEB-DLRip [MVO] [AD] торрент скачать бесплатно


    Девушка с третьего этажа / Girl on the Third Floor (2019) WEB-DLRip [MVO] [AD] торрент скачать бесплатно

    Дата: 29-10-2019, 05:00 | .torrent скачали: 0

    Девушка с третьего этажа / Girl on the Third Floor (2019) WEB-DLRip [MVO] [AD]Производство: США/Queensbury Pictures
    Жанр: Ужасы
    Режиссер: Трэвис Стивенс

    Актеры
    СМ Панк, Триесте Келли Данн, Сара Брукс, Элисса Даулинг, Карен Водич, Трэвис Дельгадо, Маршалл Бин, Эниш Джетмалани, Бишоп Стивенс, Тоня Кэй

    Описание

    Ожидающий пополнения в семействе мужчина покупает старый дом из тех, про которые принято говорить, что в них есть потенциал. Он принимается самостоятельно доводить будущее жилище до ума, но у здания есть мрачная история, с которой новому владельцу, похоже, не совладать.

    Дата мировой премьеры: 10 марта 2019
    Продолжительность: 01: 31: 28
    Качество видео: WEB-DLRip
    Перевод: Многоголосый закадровый, профессиональный (Синема УС)
    Субтитры: Отсутствуют
    Реклама: Присутствует баннер.
    Видео: XviD, 720x400, ~1707 Kbps
    Аудио: AC-3, 2 ch, 384 Kbps
    Общее
    Полное имя : D: NNMДевушка с третьего этажаGirl.on.the.Third.Floor.2019.WEB-DLRip.avi
    Формат : AVI
    Формат/Информация : Audio Video Interleave
    Профиль формата : OpenDML
    Размер файла : 1, 34 Гбайт
    Продолжительность : 1 ч. 31 м.
    Общий поток : 2103 Кбит/сек
    Видео
    Идентификатор : 0
    Формат : MPEG-4 Visual
    Профиль формата : Advanced Simple@L5
    Настройки формата : BVOP2/Custom Matrix
    Параметр BVOP формата : 2
    Параметр QPel формата : Нет
    Параметр GMC формата : Без точки перехода
    Параметр матрицы формата : Выборочная
    Идентификатор кодека : XVID
    Идентификатор кодека/Подсказка : XviD
    Продолжительность : 1 ч. 31 м.
    Битрейт : 1707 Кбит/сек
    Ширина : 720 пикселей
    Высота : 400 пикселей
    Соотношение сторон : 16: 9
    Частота кадров : 23, 976 (24000/1001) кадра/сек
    Цветовое пространство : YUV
    Субдискретизация насыщенности : 4: 2: 0
    Битовая глубина : 8 бит
    Тип развёртки : Прогрессивная
    Метод сжатия : С потерями
    Бит/(Пиксели*Кадры) : 0.247
    Размер потока : 1, 09 Гбайт (81%)
    Библиотека кодирования : XviD 1.2.1 (UTC 2008-12-04)
    Аудио
    Идентификатор : 1
    Формат : AC-3
    Формат/Информация : Audio Coding 3
    Коммерческое название : Dolby Digital
    Идентификатор кодека : 2000
    Продолжительность : 1 ч. 31 м.
    Вид битрейта : Постоянный
    Битрейт : 384 Кбит/сек
    Каналы : 2 канала
    ChannelLayout : L R
    Частота : 48, 0 КГц
    Частота кадров : 31, 250 кадров/сек (1536 SPF)
    Битовая глубина : 16 бит
    Метод сжатия : С потерями
    Размер потока : 251 Мбайт (18%)
    Выравнивание : Соединение по промежуткам
    Продолжительность промежутка : 32 мс. (0, 77 видеокадр)
    ServiceKind/String : Complete Main

    Скриншоты для ознакомления



    Все одноименные релизы в Клубе Время раздачи: 24/7 (до появления первых 3-5 скачавших)

    Онлайн видео Девушка с третьего этажа



    Девушка с третьего этажа/Girl on the Third Floor (2019) WEB-DLRip [MVO] [AD]
    Рейтинг →
     (голосов: 1, оценка 4/5, голосовать можно 1 раз )

    Другие торренты по теме:

  • Девушка с третьего этажа / Girl on the Third Floor (2019) WEB-DLRip [H.264 / 720p-LQ] [MVO] [AD]


    • Комментарии (0):

      Информация

      Информация

        Посетители, находящиеся в группе Гости, не могут оставлять комментарии в данной новости.

        ↓ Меню




        ↓ Опрос

        Вы добавили сайт в закладки?
        Да
        Нет


        Популярное