.
Авторизация | Регистрация

bitok.xyz

» » Девушка с третьего этажа / Girl on the Third Floor (2019) WEB-DLRip [H.264 / 720p-LQ] [MVO] [AD] торрент скачать бесплатно


    Девушка с третьего этажа / Girl on the Third Floor (2019) WEB-DLRip [H.264 / 720p-LQ] [MVO] [AD] торрент скачать бесплатно

    Дата: 29-10-2019, 05:00 | .torrent скачали: 0

    Девушка с третьего этажа / Girl on the Third Floor (2019) WEB-DLRip [H.264 / 720p-LQ] [MVO] [AD]Производство: США/Queensbury Pictures
    Жанр: Ужасы
    Режиссер: Трэвис Стивенс

    Актеры
    СМ Панк, Триесте Келли Данн, Сара Брукс, Элисса Даулинг, Карен Водич, Трэвис Дельгадо, Маршалл Бин, Эниш Джетмалани, Бишоп Стивенс, Тоня Кэй

    Описание

    Ожидающий пополнения в семействе мужчина покупает старый дом из тех, про которые принято говорить, что в них есть потенциал. Он принимается самостоятельно доводить будущее жилище до ума, но у здания есть мрачная история, с которой новому владельцу, похоже, не совладать.

    Дата мировой премьеры: 10 марта 2019
    Продолжительность: 01: 31: 28
    Качество видео: WEB-DLRip
    Перевод: Многоголосый закадровый, профессиональный (Синема УС)
    Субтитры: Отсутствуют
    Реклама: Присутствует баннер.
    Видео: AVC/H.264, 1280x720, ~5221 Kbps
    Аудио: AC-3, 2 ch, 384 Kbps
    Общее
    Полное имя : D: NNMДевушка с третьего этажаGirl.on.the.Third.Floor.2019.WEB-DLRip.720p-LQ.mkv
    Формат : Matroska
    Версия формата : Version 2
    Размер файла : 3, 65 Гбайт
    Продолжительность : 1 ч. 31 м.
    Режим общего битрейта : Переменный
    Общий поток : 5719 Кбит/сек
    Программа кодирования : libmatroska 1.4.1
    Библиотека кодирования : SolveigMM Matroska Muxer Version 1.0.1502.31
    Видео
    Идентификатор : 1
    Формат : AVC
    Формат/Информация : Advanced Video Codec
    Профиль формата : High@L4.1
    Настройки формата : CABAC/4 Ref Frames
    Параметр CABAC формата : Да
    Параметр RefFrames формата : 4 кадра
    Идентификатор кодека : V_MPEG4/ISO/AVC
    Продолжительность : 1 ч. 31 м.
    Вид битрейта : Переменный
    Битрейт : 5221 Кбит/сек
    Номинальный битрейт : 6000 Кбит/сек
    Максимальный битрейт : 6000 Кбит/сек
    Ширина : 1280 пикселей
    Высота : 720 пикселей
    Соотношение сторон : 16: 9
    Режим частоты кадров : Постоянный
    Частота кадров : 23, 976 (24000/1001) кадра/сек
    Стандарт вещания : Component
    Цветовое пространство : YUV
    Субдискретизация насыщенности : 4: 2: 0
    Битовая глубина : 8 бит
    Тип развёртки : Прогрессивная
    Бит/(Пиксели*Кадры) : 0.236
    Размер потока : 3, 34 Гбайт (91%)
    Default : Нет
    Forced : Нет
    Цветовой диапазон : Limited
    Основные цвета : BT.709
    Характеристики трансфера : BT.709
    Коэффициенты матрицы : BT.709
    Аудио
    Идентификатор : 2
    Формат : AC-3
    Формат/Информация : Audio Coding 3
    Коммерческое название : Dolby Digital
    Идентификатор кодека : A_AC3
    Продолжительность : 1 ч. 31 м.
    Вид битрейта : Постоянный
    Битрейт : 384 Кбит/сек
    Каналы : 2 канала
    ChannelLayout : L R
    Частота : 48, 0 КГц
    Частота кадров : 31, 250 кадров/сек (1536 SPF)
    Битовая глубина : 16 бит
    Метод сжатия : С потерями
    Размер потока : 251 Мбайт (7%)
    Язык : Russian
    ServiceKind/String : Complete Main
    Default : Нет
    Forced : Нет

    Скриншоты для ознакомления



    Все одноименные релизы в Клубе Время раздачи: 24/7 (до появления первых 3-5 скачавших)

    Онлайн видео Девушка с третьего этажа



    Девушка с третьего этажа/Girl on the Third Floor (2019) WEB-DLRip [H.264/720p-LQ] [MVO] [AD]
    Рейтинг →
     (голосов: 1, оценка 4/5, голосовать можно 1 раз )

    Другие торренты по теме:

  • Девушка с третьего этажа / Girl on the Third Floor (2019) WEB-DLRip [MVO] [AD]


    • Комментарии (0):

      Информация

      Информация

        Посетители, находящиеся в группе Гости, не могут оставлять комментарии в данной новости.

        ↓ Меню




        ↓ Опрос

        Вы добавили сайт в закладки?
        Да
        Нет


        Популярное