.
Авторизация | Регистрация

bitok.xyz

» » Терминатор: Темные судьбы / Terminator: Dark Fate (2019) CAMRip [H.264 / 720p-LQ] [MVO] [AD] торрент скачать бесплатно


    Терминатор: Темные судьбы / Terminator: Dark Fate (2019) CAMRip [H.264 / 720p-LQ] [MVO] [AD] торрент скачать бесплатно

    Дата: 29-10-2019, 05:00 | .torrent скачали: 7

    Терминатор: Темные судьбы / Terminator: Dark Fate (2019) CAMRip [H.264 / 720p-LQ] [MVO] [AD]Производство: США, Китай/Paramount Pictures, Twentieth Century Fox, Skydance Media
    Жанр: Фантастика, боевик, приключения
    Режиссер: Тим Миллер

    Актеры
    Арнольд Шварценеггер, Маккензи Дэвис, Линда Хэмилтон, Эдвард Ферлонг, Гэбриел Луна, Наталия Рейес, Том Хоппер, Кассандра Старр, Бретт Азар, Диего Бонета

    Описание

    Сара Коннор превратилась в настоящую охотницу за терминаторами и теперь занимается уничтожением роботов-убийц из будущего. Она считала, что главное — это не дать им добраться до Джона, но теперь появилась Дани Рамос, от выживания которой также зависит судьба человечества. Вместе с ней в бой вступает и загадочная девушка Грейс, смесь человека и машины.

    Возраст: 16+ (зрителям, достигшим 16 лет)
    Рейтинг MPAA: R (лицам до 17 лет обязательно присутствие взрослого)
    Дата мировой премьеры: 23 октября 2019
    Дата премьеры в России: 31 октября 2019

    Продолжительность: 01: 57: 38
    Качество видео: CAMRip
    Перевод: Многоголосый закадровый, любительский (КОЛОБОК)
    Субтитры: Отсутствуют
    Реклама: Присутствует баннер.
    Видео: AVC/H.264, 1280x536, ~3600 Kbps
    Аудио: AC-3, 2 ch, 384 Kbps
    Общее
    Полное имя : D: NNMТерминаторTerminator.Dark.Fate.2019.CAMRip.720p-LQ.mkv
    Формат : Matroska
    Версия формата : Version 2
    Размер файла : 3, 34 Гбайт
    Продолжительность : 1 ч. 57 м.
    Режим общего битрейта : Переменный
    Общий поток : 4065 Кбит/сек
    Программа кодирования : libmatroska 1.4.1
    Библиотека кодирования : SolveigMM Matroska Muxer Version 1.0.1502.31
    Видео
    Идентификатор : 1
    Формат : AVC
    Формат/Информация : Advanced Video Codec
    Профиль формата : High@L4.1
    Настройки формата : CABAC/4 Ref Frames
    Параметр CABAC формата : Да
    Параметр RefFrames формата : 4 кадра
    Идентификатор кодека : V_MPEG4/ISO/AVC
    Продолжительность : 1 ч. 57 м.
    Вид битрейта : Переменный
    Битрейт : 3600 Кбит/сек
    Максимальный битрейт : 4000 Кбит/сек
    Ширина : 1280 пикселей
    Высота : 536 пикселей
    Соотношение сторон : 2, 40: 1
    Режим частоты кадров : Постоянный
    Частота кадров : 23, 976 (24000/1001) кадра/сек
    Стандарт вещания : Component
    Цветовое пространство : YUV
    Субдискретизация насыщенности : 4: 2: 0
    Битовая глубина : 8 бит
    Тип развёртки : Прогрессивная
    Бит/(Пиксели*Кадры) : 0.219
    Размер потока : 2, 96 Гбайт (89%)
    Default : Нет
    Forced : Нет
    Цветовой диапазон : Limited
    Основные цвета : BT.709
    Характеристики трансфера : BT.709
    Коэффициенты матрицы : BT.709
    Аудио
    Идентификатор : 2
    Формат : AC-3
    Формат/Информация : Audio Coding 3
    Коммерческое название : Dolby Digital
    Идентификатор кодека : A_AC3
    Продолжительность : 1 ч. 57 м.
    Вид битрейта : Постоянный
    Битрейт : 384 Кбит/сек
    Каналы : 2 канала
    ChannelLayout : L R
    Частота : 48, 0 КГц
    Частота кадров : 31, 250 кадров/сек (1536 SPF)
    Битовая глубина : 16 бит
    Метод сжатия : С потерями
    Размер потока : 323 Мбайт (9%)
    Язык : Russian
    ServiceKind/String : Complete Main
    Default : Нет
    Forced : Нет

    Скриншоты для ознакомления



    Все одноименные релизы в Клубе Время раздачи: 24/7 (до появления первых 3-5 скачавших)

    Онлайн видео Терминатор: Темные судьбы



    Терминатор: Темные судьбы/Terminator: Dark Fate (2019) CAMRip [H.264/720p-LQ] [MVO] [AD]
    Рейтинг →
     (голосов: 1, оценка 4/5, голосовать можно 1 раз )

    Другие торренты по теме:

  • Терминатор: Темные судьбы / Terminator: Dark Fate (2019) CAMRip [MVO] [AD]
  • Tom Holkenborg - Терминатор: Темные судьбы / Terminator: Dark Fate (2019) [MP3|320 Kbps] <Score>
  • Tom Holkenborg aka Junkie XL - Terminator: Dark Fate / Терминатор: Темные судьбы (Music from the Motion Picture) (2019) [FLAC|Lossless|tracks]<Soundtrack>
  • Tom Holkenborg aka Junkie XL - Terminator: Dark Fate / Терминатор: Темные судьбы (Music from the Motion Picture) (2019) [MP3|320 кб / с]<Soundtrack>


    • Комментарии (0):

      Информация

      Информация

        Посетители, находящиеся в группе Гости, не могут оставлять комментарии в данной новости.

        ↓ Меню




        ↓ Опрос

        Вы добавили сайт в закладки?
        Да
        Нет


        Популярное