.
Авторизация | Регистрация

bitok.xyz

» » Золотая рыбка / Die Goldfische (2019) HDRip [MVO] [AD] торрент скачать бесплатно


    Золотая рыбка / Die Goldfische (2019) HDRip [MVO] [AD] торрент скачать бесплатно

    Дата: 29-10-2019, 05:00 | .torrent скачали: 0

    Золотая рыбка / Die Goldfische (2019) HDRip [MVO] [AD]Производство: Германия/Deutsche Columbia Pictures Film Produktion, SevenPictures Film, Wiedemann Berg Filmproduktion
    Жанр: Комедия
    Режиссер: Alireza Golafshan

    Актеры
    Том Шиллинг, Йелла Хаазе, Биргит Минихмайр, Аксель Штайн, Кида Рамадан, Ян Хенрик Штальберг, Luisa Wöllisch, Christian Ammermüller, Jonas Baum, Angelo Borer

    Описание

    Жизнь банкира Оливера перевернулась с ног на голову после серьезной аварии. Его автомобиль врезается в ограждение и Оливера парализует. После реабилитации он переезжает в коммунальную квартиру для людей с ограниченными возможностями. Фактически, он должен теперь полностью переосмыслить свою жизнь, но вместо этого новые обстоятельства приводят Оливера к преступному плану: он хочет поехать в Цюрих, чтобы привезти в Швейцарию значительное количество чёрных денег. Незаконное предприятие отправляет его в авантюрное путешествие, где его сопровождает команда необычных сотрудников…

    Дата мировой премьеры: 11 февраля 2019
    Продолжительность: 01: 45: 45
    Качество видео: HDRip
    Перевод: Многоголосый закадровый, любительский (AlphaProject)
    Субтитры: Отсутствуют
    Реклама: Присутствует баннер.
    Видео: XviD, 720x304, ~1561 Kbps
    Аудио: AC-3, 2 ch, 256 Kbps
    Общее
    Полное имя : D: NNMЗолотая рыбкаDie.Goldfische.2019.HDRip.avi
    Формат : AVI
    Формат/Информация : Audio Video Interleave
    Профиль формата : OpenDML
    Размер файла : 1, 35 Гбайт
    Продолжительность : 1 ч. 45 м.
    Общий поток : 1829 Кбит/сек
    Видео
    Идентификатор : 0
    Формат : MPEG-4 Visual
    Профиль формата : Advanced Simple@L5
    Параметр BVOP формата : 2
    Параметр QPel формата : Нет
    Параметр GMC формата : Без точки перехода
    Параметр матрицы формата : Default (H.263)
    Идентификатор кодека : XVID
    Идентификатор кодека/Подсказка : XviD
    Продолжительность : 1 ч. 45 м.
    Битрейт : 1561 Кбит/сек
    Ширина : 720 пикселей
    Высота : 304 пикселя
    Соотношение сторон : 2, 35: 1
    Частота кадров : 23, 976 (24000/1001) кадра/сек
    Частота кадров в оригинале : 0, 877 кадр/сек
    Цветовое пространство : YUV
    Субдискретизация насыщенности : 4: 2: 0
    Битовая глубина : 8 бит
    Тип развёртки : Прогрессивная
    Метод сжатия : С потерями
    Бит/(Пиксели*Кадры) : 0.297
    Размер потока : 1, 15 Гбайт (85%)
    Библиотека кодирования : XviD 1.2.1 (UTC 2008-12-04)
    Аудио
    Идентификатор : 1
    Формат : AC-3
    Формат/Информация : Audio Coding 3
    Коммерческое название : Dolby Digital
    Идентификатор кодека : 2000
    Продолжительность : 1 ч. 45 м.
    Вид битрейта : Постоянный
    Битрейт : 256 Кбит/сек
    Каналы : 2 канала
    ChannelLayout : L R
    Частота : 48, 0 КГц
    Частота кадров : 31, 250 кадров/сек (1536 SPF)
    Битовая глубина : 16 бит
    Метод сжатия : С потерями
    Размер потока : 194 Мбайт (14%)
    Выравнивание : Соединение по промежуткам
    Продолжительность промежутка : 32 мс. (0, 77 видеокадр)
    ServiceKind/String : Complete Main

    Скриншоты для ознакомления



    Все одноименные релизы в Клубе Время раздачи: 24/7 (до появления первых 3-5 скачавших)

    Онлайн видео Золотая рыбка



    Золотая рыбка/Die Goldfische (2019) HDRip [MVO] [AD]
    Рейтинг →
     (голосов: 1, оценка 4/5, голосовать можно 1 раз )

    Другие торренты по теме:

  • Жан-Мари Гюстав Леклезио | Золотая рыбка (2012) [MP3]
  • Kingyou Chuuihou! / Goldfish Warning! / Осторожно! Золотая рыбка! [1991, TV, 54 из 54] DVDRip 480p raw
  • Золотая рыбка (2017) SATRip
  • Золотая рыбка (2017) HDTV [H.264 / 1080i]
  • Золотая рыбка (2017) HDTVRip [H.264] [MP4|1024x442]
  • Мафик - Золотая рыбка (2017) [MP3|320 Kbps] <Chanson>
  • Александр Сергеевич Пушкин | Рыбак и золотая рыбка (1889) [JPG]
  • Золотая рыбка / Die Goldfische (2019) BDRip [H.264 / 720p-LQ] [MVO] [AD]


    • Комментарии (0):

      Информация

      Информация

        Посетители, находящиеся в группе Гости, не могут оставлять комментарии в данной новости.

        ↓ Меню




        ↓ Опрос

        Вы добавили сайт в закладки?
        Да
        Нет


        Популярное