.
Авторизация | Регистрация

bitok.xyz

» » Золотая рыбка / Die Goldfische (2019) BDRip [H.264 / 720p-LQ] [MVO] [AD] торрент скачать бесплатно


    Золотая рыбка / Die Goldfische (2019) BDRip [H.264 / 720p-LQ] [MVO] [AD] торрент скачать бесплатно

    Дата: 29-10-2019, 05:00 | .torrent скачали: 0

    Золотая рыбка / Die Goldfische (2019) BDRip [H.264 / 720p-LQ] [MVO] [AD]Производство: Германия/Deutsche Columbia Pictures Film Produktion, SevenPictures Film, Wiedemann Berg Filmproduktion
    Жанр: Комедия
    Режиссер: Alireza Golafshan

    Актеры
    Том Шиллинг, Йелла Хаазе, Биргит Минихмайр, Аксель Штайн, Кида Рамадан, Ян Хенрик Штальберг, Luisa Wöllisch, Christian Ammermüller, Jonas Baum, Angelo Borer

    Описание

    Жизнь банкира Оливера перевернулась с ног на голову после серьезной аварии. Его автомобиль врезается в ограждение и Оливера парализует. После реабилитации он переезжает в коммунальную квартиру для людей с ограниченными возможностями. Фактически, он должен теперь полностью переосмыслить свою жизнь, но вместо этого новые обстоятельства приводят Оливера к преступному плану: он хочет поехать в Цюрих, чтобы привезти в Швейцарию значительное количество чёрных денег. Незаконное предприятие отправляет его в авантюрное путешествие, где его сопровождает команда необычных сотрудников…

    Дата мировой премьеры: 11 февраля 2019
    Продолжительность: 01: 45: 45
    Качество видео: BDRip
    Перевод: Многоголосый закадровый, любительский (AlphaProject)
    Субтитры: Отсутствуют
    Реклама: Присутствует баннер.
    Видео: AVC/H.264, 1280x536, ~6684 Kbps
    Аудио: AC-3, 2 ch, 384 Kbps
    Общее
    Полное имя : D: NNMЗолотая рыбкаDie.Goldfische.2019.BDRip.720p-LQ.mkv
    Формат : Matroska
    Версия формата : Version 2
    Размер файла : 5, 33 Гбайт
    Продолжительность : 1 ч. 45 м.
    Режим общего битрейта : Постоянный
    Общий поток : 7212 Кбит/сек
    Программа кодирования : libmatroska 1.4.1
    Библиотека кодирования : SolveigMM Matroska Muxer Version 1.0.1502.31
    Видео
    Идентификатор : 1
    Формат : AVC
    Формат/Информация : Advanced Video Codec
    Профиль формата : High@L4.1
    Настройки формата : CABAC/4 Ref Frames
    Параметр CABAC формата : Да
    Параметр RefFrames формата : 4 кадра
    Идентификатор кодека : V_MPEG4/ISO/AVC
    Продолжительность : 1 ч. 45 м.
    Вид битрейта : Постоянный
    Битрейт : 6684 Кбит/сек
    Номинальный битрейт : 7500 Кбит/сек/7500 Кбит/сек
    Ширина : 1280 пикселей
    Высота : 536 пикселей
    Соотношение сторон : 2, 40: 1
    Режим частоты кадров : Постоянный
    Частота кадров : 23, 976 (24000/1001) кадра/сек
    Стандарт вещания : Component
    Цветовое пространство : YUV
    Субдискретизация насыщенности : 4: 2: 0
    Битовая глубина : 8 бит
    Тип развёртки : Прогрессивная
    Бит/(Пиксели*Кадры) : 0.406
    Размер потока : 4, 94 Гбайт (93%)
    Default : Нет
    Forced : Нет
    Цветовой диапазон : Limited
    Основные цвета : BT.709
    Характеристики трансфера : BT.709
    Коэффициенты матрицы : BT.709
    Аудио
    Идентификатор : 2
    Формат : AC-3
    Формат/Информация : Audio Coding 3
    Коммерческое название : Dolby Digital
    Идентификатор кодека : A_AC3
    Продолжительность : 1 ч. 45 м.
    Вид битрейта : Постоянный
    Битрейт : 384 Кбит/сек
    Каналы : 2 канала
    ChannelLayout : L R
    Частота : 48, 0 КГц
    Частота кадров : 31, 250 кадров/сек (1536 SPF)
    Битовая глубина : 16 бит
    Метод сжатия : С потерями
    Размер потока : 290 Мбайт (5%)
    Язык : Russian
    ServiceKind/String : Complete Main
    Default : Нет
    Forced : Нет

    Скриншоты для ознакомления



    Все одноименные релизы в Клубе Время раздачи: 24/7 (до появления первых 3-5 скачавших)

    Онлайн видео Золотая рыбка



    Золотая рыбка/Die Goldfische (2019) BDRip [H.264/720p-LQ] [MVO] [AD]
    Рейтинг →
     (голосов: 1, оценка 4/5, голосовать можно 1 раз )

    Другие торренты по теме:

  • Жан-Мари Гюстав Леклезио | Золотая рыбка (2012) [MP3]
  • Kingyou Chuuihou! / Goldfish Warning! / Осторожно! Золотая рыбка! [1991, TV, 54 из 54] DVDRip 480p raw
  • Золотая рыбка (2017) SATRip
  • Золотая рыбка (2017) HDTV [H.264 / 1080i]
  • Золотая рыбка (2017) HDTVRip [H.264] [MP4|1024x442]
  • Мафик - Золотая рыбка (2017) [MP3|320 Kbps] <Chanson>
  • Александр Сергеевич Пушкин | Рыбак и золотая рыбка (1889) [JPG]
  • Золотая рыбка / Die Goldfische (2019) HDRip [MVO] [AD]


    • Комментарии (0):

      Информация

      Информация

        Посетители, находящиеся в группе Гости, не могут оставлять комментарии в данной новости.

        ↓ Меню




        ↓ Опрос

        Вы добавили сайт в закладки?
        Да
        Нет


        Популярное