.
Авторизация | Регистрация

bitok.xyz

» » В тени Луны / In the Shadow of the Moon (2019) WEB-DLRip [H.265 / 720p] [HDR, 10-bit] [PR] торрент скачать бесплатно


    В тени Луны / In the Shadow of the Moon (2019) WEB-DLRip [H.265 / 720p] [HDR, 10-bit] [PR] торрент скачать бесплатно

    Дата: 29-10-2019, 05:00 | .torrent скачали: 0

    В тени Луны / In the Shadow of the Moon (2019) WEB-DLRip [H.265 / 720p] [HDR, 10-bit] [PR]Производство: США/42, Automatik, Belladonna Productions
    Жанр: Триллер, криминал, детектив, фантастика
    Режиссер: Джим Микл

    Актеры
    Бойд Холбрук, Майкл С. Холл, Боким Вудбайн, Клеопатра Коулмэн, Сара Дагдэйл, Руди Дхармалингхам, Габриэль Грэхэм, Джулия Ноуп, Райан Аллен, Билли Отис

    Описание

    Полицейский из Филадельфии Томас Локхарт хочет дослужиться до звания детектива. Для этого он решает лично найти опасного серийного убийцу, на чьём счету несколько загадочных убийств. Преступницей оказывается молодая женщина, которая погибает под колёсами поезда во время потасовки с Локхартом. Несмотря на это, через девять лет она снова даёт о себе знать, и теперь Локхарт должен разобраться, кто она такая и как связаны их судьбы.

    Дата мировой премьеры: 21 сентября 2019
    Продолжительность: 01: 55: 32
    Качество видео: WEB-DLRip (720p)
    Перевод: Дублированный (Пифагор)
    Субтитры: Русские (форсированные, полные), английские (SDH)
    Видео: HEVC/H.265, 1280x534, ~3885 Kbps
    Аудио 1: AC3, 6 ch, 448 Kbps - Русский
    Аудио 2: AC3, 6 ch, 448 Kbps - Английский
    Общее
    Уникальный идентификатор : 120625152940260343965351437134788430963 (0x5ABF8F35743B32D8E6B72C84F4460C73)
    Полное имя : In.the.Shadow.of.the.Moon.2019.WEB-DLRip.720p.10bit.HEVC.mkv
    Формат : Matroska
    Версия формата : Version 4/Version 2
    Размер файла : 3, 94 Гбайт
    Продолжительность : 1 ч. 55 м.
    Общий поток : 4878 Кбит/сек
    Название фильма : In.the.Shadow.of.the.Moon.2019
    Программа кодирования : XviD4PSP 8.0.77
    Библиотека кодирования : Lavf58.20.100
    ErrorDetectionType : Per level 1
    ENCODING_INFO : MATROSKA, WEBM MKV
    Видео
    Идентификатор : 1
    Формат : HEVC
    Формат/Информация : High Efficiency Video Coding
    Профиль формата : Main10@L4.1@High
    Идентификатор кодека : V_MPEGH/ISO/HEVC
    Продолжительность : 1 ч. 55 м.
    Битрейт : 3885 Кбит/сек
    Ширина : 1280 пикселей
    Высота : 534 пикселя
    Соотношение сторон : 2, 40: 1
    Режим частоты кадров : Постоянный
    Частота кадров : 24, 000 кадра/сек
    Цветовое пространство : YUV
    Субдискретизация насыщенности : 4: 2: 0
    Битовая глубина : 10 бит
    Бит/(Пиксели*Кадры) : 0.237
    Размер потока : 3, 13 Гбайт (80%)
    Default : Да
    Forced : Нет
    Цветовой диапазон : Limited
    Основные цвета : BT.2020
    Характеристики трансфера : PQ
    Коэффициенты матрицы : BT.2020 non-constant
    ENCODING_INFO : HEVC HEVC NVENC VBR 4000kbps HQ
    Аудио #1
    Идентификатор : 2
    Формат : AC-3
    Формат/Информация : Audio Coding 3
    Параметр Endianness формата : Big
    Идентификатор кодека : A_AC3
    Продолжительность : 1 ч. 55 м.
    Вид битрейта : Постоянный
    Битрейт : 448 Кбит/сек
    Каналы : 6 каналов
    Расположение каналов : Front: L C R, Side: L R, LFE
    Частота : 48, 0 КГц
    Частота кадров : 31, 250 кадров/сек (1536 SPF)
    Битовая глубина : 16 бит
    Метод сжатия : С потерями
    Размер потока : 370 Мбайт (9%)
    Заголовок : rus
    Язык : Russian
    ServiceKind/String : Complete Main
    Default : Да
    Forced : Нет
    ENCODING_INFO : EAC3 AC3 CBR 448kbps
    Аудио #2
    Идентификатор : 3
    Формат : AC-3
    Формат/Информация : Audio Coding 3
    Параметр Endianness формата : Big
    Идентификатор кодека : A_AC3
    Продолжительность : 1 ч. 55 м.
    Вид битрейта : Постоянный
    Битрейт : 448 Кбит/сек
    Каналы : 6 каналов
    Расположение каналов : Front: L C R, Side: L R, LFE
    Частота : 48, 0 КГц
    Частота кадров : 31, 250 кадров/сек (1536 SPF)
    Битовая глубина : 16 бит
    Метод сжатия : С потерями
    Размер потока : 370 Мбайт (9%)
    Заголовок : eng
    Язык : English
    ServiceKind/String : Complete Main
    Default : Нет
    Forced : Нет
    ENCODING_INFO : EAC3 AC3 CBR 448kbps
    Текст #1
    Идентификатор : 4
    Формат : UTF-8
    Идентификатор кодека : S_TEXT/UTF8
    Идентификатор кодека/Информация : UTF-8 Plain Text
    Заголовок : rusForced
    Язык : Russian
    Default : Да
    Forced : Да
    ENCODING_INFO : SUBRIP COPY Быстрое
    Текст #2
    Идентификатор : 5
    Формат : UTF-8
    Идентификатор кодека : S_TEXT/UTF8
    Идентификатор кодека/Информация : UTF-8 Plain Text
    Заголовок : rusFull
    Язык : Russian
    Default : Нет
    Forced : Нет
    ENCODING_INFO : SUBRIP COPY Быстрое
    Текст #3
    Идентификатор : 6
    Формат : UTF-8
    Идентификатор кодека : S_TEXT/UTF8
    Идентификатор кодека/Информация : UTF-8 Plain Text
    Заголовок : engSDH
    Язык : English
    Default : Нет
    Forced : Нет
    ENCODING_INFO : SUBRIP COPY Быстрое

    Скриншоты для ознакомления

    Все одноименные релизы в Клубе
    Время раздачи: 24/7 (до появления первых 3-5 скачавших)

    Онлайн видео В тени Луны



    В тени Луны/In the Shadow of the Moon (2019) WEB-DLRip [H.265/720p] [HDR, 10-bit] [PR]
    Рейтинг →
     (голосов: 1, оценка 5/5, голосовать можно 1 раз )

    Другие торренты по теме:

  • В тени Луны / In the Shadow of the Moon (2019) WEBRip
  • В тени Луны / In the Shadow of the Moon (2019) WEBRip [H.264 / 1080p-LQ] [PR]
  • В тени Луны / In the Shadow of the Moon (2019) WEBRip [H.264]
  • В тени Луны / In the Shadow of the Moon (2019) WEBRip [1080p] ATV [PR]
  • В тени Луны / In the Shadow of the Moon (2019) WEBRip [720p] ATV
  • В тени Луны / In the Shadow of the Moon (2019) WEB-DLRip [H.265 / 1080p] [HDR, 10-bit] [PR]
  • В тени Луны / In the Shadow of the Moon (2019) WEB-DLRip [H.265] [10-bit]
  • В тени Луны / In the Shadow of the Moon (2019) WEBRip [H.264 / 720p-LQ]


    • Комментарии (0):

      Информация

      Информация

        Посетители, находящиеся в группе Гости, не могут оставлять комментарии в данной новости.

        ↓ Меню




        ↓ Опрос

        Вы добавили сайт в закладки?
        Да
        Нет


        Популярное