.
Авторизация | Регистрация

bitok.xyz

» » Порно / Porno (1989) TVRip [VO] торрент скачать бесплатно


    Порно / Porno (1989) TVRip [VO] торрент скачать бесплатно

    Дата: 29-10-2019, 05:00 | .torrent скачали: 5

    Порно / Porno (1989) TVRip [VO]Производство: Польша/Studio Filmowe Zebra
    Жанр: мелодрама, комедия
    Режиссер: Марек Котерский

    Актеры
    Збигнев Рола, Майя Барелковская, Хенрик Биста, Збигнев Бучковский, Ивона Хоинска, Малгожата Хойнацка, Мирослава Дубравская, Катажина Фигура, Анна Горностай, Ева Грабарчик и др.

    Описание

    Герой меняет женщин, как перчатки, ищет настоящую любовь и идеал женщины, но одновременно бросает очередных любовниц. В страхе перед их изменой, ревностью. Получая новые сексуальные впечатления, старается заглушить одиночество и чувство душевного неудовлетворения.

    Возраст: 18+ (зрителям, достигшим 18 лет. запрещено для детей)
    Продолжительность: 01: 18: 28
    Качество видео: TVRip
    Перевод: Одноголосый любительский (Неизвестен)
    Субтитры: отсутствуют
    Реклама: отсутствует
    Видео: Xvid, 640x480, ~2133 kbps
    Аудио 1: MP3, 2 ch, 128 kbps - русский (VO)
    Аудио 2: MP3, 2 ch, 128 kbps - польский
    General
    Complete name : Porno.1989.avi
    Format : AVI
    Format/Info : Audio Video Interleave
    File size : 1.32 GiB
    Duration : 1 h 18 min
    Overall bit rate mode : Variable
    Overall bit rate : 2 404 kb/s
    Writing application : VirtualDubMod 1.5.10.3 (build 2550/release)
    Writing library : VirtualDubMod build 2550/release
    Video
    ID : 0
    Format : MPEG-4 Visual
    Format profile : Advanced Simple@L5
    Format settings : BVOP1
    Format settings, BVOP : 1
    Format settings, QPel : No
    Format settings, GMC : No warppoints
    Format settings, Matrix : Default (H.263)
    Codec ID : XVID
    Codec ID/Hint : XviD
    Duration : 1 h 18 min
    Bit rate : 2 133 kb/s
    Width : 640 pixels
    Height : 480 pixels
    Display aspect ratio : 4: 3
    Frame rate : 25.000 FPS
    Color space : YUV
    Chroma subsampling : 4: 2: 0
    Bit depth : 8 bits
    Scan type : Progressive
    Compression mode : Lossy
    Bits/(Pixel*Frame) : 0.278
    Stream size : 1.17 GiB (89%)
    Writing library : XviD 63
    Audio #1
    ID : 1
    Format : MPEG Audio
    Format version : Version 1
    Format profile : Layer 3
    Format settings : Joint stereo/MS Stereo
    Codec ID : 55
    Codec ID/Hint : MP3
    Duration : 1 h 18 min
    Bit rate mode : Variable
    Bit rate : 128 kb/s
    Channel(s) : 2 channels
    Sampling rate : 44.1 kHz
    Frame rate : 38.281 FPS (1152 SPF)
    Compression mode : Lossy
    Stream size : 71.8 MiB (5%)
    Alignment : Split across interleaves
    Interleave, duration : 40 ms (1.00 video frame)
    Interleave, preload duratio : 500 ms
    Writing library : LAME3.98.4
    Audio #2
    ID : 2
    Format : MPEG Audio
    Format version : Version 1
    Format profile : Layer 3
    Format settings : Joint stereo/MS Stereo
    Codec ID : 55
    Codec ID/Hint : MP3
    Duration : 1 h 18 min
    Bit rate mode : Constant
    Bit rate : 128 kb/s
    Channel(s) : 2 channels
    Sampling rate : 44.1 kHz
    Compression mode : Lossy
    Stream size : 71.9 MiB (5%)
    Alignment : Split across interleaves
    Interleave, duration : 40 ms (1.00 video frame)
    Interleave, preload duratio : 500 ms
    Writing library : LAME3.98

    Скриншоты для ознакомления



    Все одноименные релизы в Клубе
    Время раздачи: с 09: 00 до 18: 00 (до появления первых 3-5 скачавших)

    Онлайн видео Порно



    Порно/Porno (1989) TVRip [VO]
    Рейтинг →
     (голосов: 1, оценка 5/5, голосовать можно 1 раз )

    Другие торренты по теме:

  • Зак и Мири снимают порно / Zack and Miri Make a Porno (2008) BDRip [H.264 / 720p]


    • Комментарии (0):

      Информация

      Информация

        Посетители, находящиеся в группе Гости, не могут оставлять комментарии в данной новости.

        ↓ Меню




        ↓ Опрос

        Вы добавили сайт в закладки?
        Да
        Нет


        Популярное