.
Авторизация | Регистрация

bitok.xyz

» » Полярный (2019) WEB-DLRip (сезон 1, серии 1-2 из 16) (обновляемая) торрент скачать бесплатно


    Полярный (2019) WEB-DLRip (сезон 1, серии 1-2 из 16) (обновляемая) торрент скачать бесплатно

    Дата: 29-10-2019, 05:00 | .torrent скачали: 0

    Полярный (2019) WEB-DLRip (сезон 1, серии 1-2 из 16) (обновляемая)Производство: Россия/ТНТ
    Жанр: комедия
    Режиссер: Михаил Старчак, Константин Статский

    Актеры
    Михаил Пореченков, Иван Охлобыстин, Катерина Шпица, Владимир Епифанцев, Александр Потапов, Игорь Жижикин, Ян Цапник, Филипп Дьячков, Светлана Листова, Карина Зверева и др.

    Описание

    Эта история о бывшем бандите по кличке Витя Мясник. В середине 90-х одно его имя заставляло московских коммерсантов хвататься за сердце, а конкурентов по опасному бизнесу — за стволы. Но со временем Витя отошел от дел и переехал за город. Идиллия нарушается неожиданным визитом бывших подельников Вити во главе с авторитетом по имени Артур. Он просит Витю передержать на его оффшорном банковском счете воровской общак. Витя кладет общак на свой банковский счет и по настойчивой просьбе Артура ставит на счет пароль, который знает только он один...

    Возраст: 16+ (зрителям, достигшим 16 лет)
    Дата российской премьеры: 28 октября 2019
    Продолжительность: ~00: 25: 00 серия
    Качество видео: WEB-DLRip
    Видео: Xvid, 720x352, ~1670 Kbps
    Аудио: AC3, 2 ch, 192 Kbps
    Общее
    Полное имя : G: Polyarnyi.2019Polyarnyi.s01.e01.avi
    Формат : AVI
    Формат/Информация : Audio Video Interleave
    Размер файла : 350 Мбайт
    Продолжительность : 26 м. 10 с.
    Общий поток : 1873 Кбит/сек
    Программа кодирования : VirtualDubMod 1.5.10.3 |www.virtualdub-fr.org|| (build 2550/release)
    Библиотека кодирования : VirtualDubMod build 2550/release
    Видео
    Идентификатор : 0
    Формат : MPEG-4 Visual
    Профиль формата : Advanced Simple@L5
    Настройки формата : BVOP1
    Параметр BVOP формата : 1
    Параметр QPel формата : Нет
    Параметр GMC формата : Без точки перехода
    Параметр матрицы формата : Default (MPEG)
    Идентификатор кодека : XVID
    Идентификатор кодека/Подсказка : XviD
    Продолжительность : 26 м. 10 с.
    Битрейт : 1671 Кбит/сек
    Ширина : 720 пикселей
    Высота : 352 пикселя
    Соотношение сторон : 2, 045
    Частота кадров : 25, 000 кадров/сек
    Цветовое пространство : YUV
    Субдискретизация насыщенности : 4: 2: 0
    Битовая глубина : 8 бит
    Тип развёртки : Прогрессивная
    Метод сжатия : С потерями
    Бит/(Пиксели*Кадры) : 0.264
    Размер потока : 313 Мбайт (89%)
    Библиотека кодирования : XviD 73
    Аудио
    Идентификатор : 1
    Формат : AC-3
    Формат/Информация : Audio Coding 3
    Коммерческое название : Dolby Digital
    Идентификатор кодека : 2000
    Продолжительность : 26 м. 10 с.
    Вид битрейта : Постоянный
    Битрейт : 192 Кбит/сек
    Каналы : 2 канала
    ChannelLayout : L R
    Частота : 48, 0 КГц
    Частота кадров : 31, 250 кадров/сек (1536 SPF)
    Метод сжатия : С потерями
    Размер потока : 35, 9 Мбайт (10%)
    Выравнивание : Разделение по промежуткам
    Продолжительность промежутка : 40 мс. (1, 00 видеокадр)
    Время предзагрузки промежутка : 500 мс.
    ServiceKind/String : Complete Main

    Скриншоты для ознакомления



    Все одноименные релизы в Клубе
    Время раздачи: 24/7 (круглосуточно) (до появления первых 3-5 скачавших)

    Онлайн видео Полярный (2019) WEB



    Полярный (2019) WEB-DLRip (сезон 1, серии 1-2 из 16) (обновляемая)
    Рейтинг →
     (голосов: 1, оценка 4/5, голосовать можно 1 раз )

    Другие торренты по теме:

  • Полярный / Polar (2019) WEB-DLRip [EN / RU, EN Sub]
  • Полярный / Polar (2019) WEB-DLRip [H.265 / 720p-LQ] [10-bit] [PR]
  • Полярный / Polar (2019) WEB-DLRip [H.265 / 1080p] [10-bit] [MVO] [PR]


    • Комментарии (0):

      Информация

      Информация

        Посетители, находящиеся в группе Гости, не могут оставлять комментарии в данной новости.

        ↓ Меню




        ↓ Опрос

        Вы добавили сайт в закладки?
        Да
        Нет


        Популярное