.
Авторизация | Регистрация

bitok.xyz

» » Полярный (2019) WEB-DL [H.264 / 1080p-LQ] (сезон 1, серии 1-2 из 16) (обновляемая) торрент скачать бесплатно


    Полярный (2019) WEB-DL [H.264 / 1080p-LQ] (сезон 1, серии 1-2 из 16) (обновляемая) торрент скачать бесплатно

    Дата: 29-10-2019, 05:00 | .torrent скачали: 1

    Полярный (2019) WEB-DL [H.264 / 1080p-LQ] (сезон 1, серии 1-2 из 16) (обновляемая)Производство: Россия/ТНТ
    Жанр: комедия
    Режиссер: Михаил Старчак, Константин Статский

    Актеры
    Михаил Пореченков, Иван Охлобыстин, Катерина Шпица, Владимир Епифанцев, Александр Потапов, Игорь Жижикин, Ян Цапник, Филипп Дьячков, Светлана Листова, Карина Зверева и др.

    Описание

    Эта история о бывшем бандите по кличке Витя Мясник. В середине 90-х одно его имя заставляло московских коммерсантов хвататься за сердце, а конкурентов по опасному бизнесу — за стволы. Но со временем Витя отошел от дел и переехал за город. Идиллия нарушается неожиданным визитом бывших подельников Вити во главе с авторитетом по имени Артур. Он просит Витю передержать на его оффшорном банковском счете воровской общак. Витя кладет общак на свой банковский счет и по настойчивой просьбе Артура ставит на счет пароль, который знает только он один...

    Возраст: 16+ (зрителям, достигшим 16 лет)
    Дата российской премьеры: 28 октября 2019
    Релиз от: Getty
    Продолжительность: ~00: 25: 00 серия
    Качество видео: WEB-DL
    Видео: AVC/H.264, 1920x1080 (16: 9), ~4700 Kbps
    Аудио: AC3, 2 ch, 192 Kbps
    Общее
    Уникальный идентификатор : 199338808925775779510174887763973104249 (0x95F7421413EE265EA85C99F54045E279)
    Полное имя : G: Polyarnyy.2019.WEB-DL.(1080p).GettyPolyarnyy.e01.2019.WEB-DL.(1080p).Getty.mkv
    Формат : Matroska
    Версия формата : Version 4
    Размер файла : 917 Мбайт
    Продолжительность : 26 м. 10 с.
    Режим общего битрейта : Постоянный
    Общий поток : 4899 Кбит/сек
    Название фильма : Polyarnyy.e01.2019.WEB-DL.(1080p).Getty
    Дата кодирования : UTC 2019-10-28 17: 14: 33
    Программа кодирования : mkvmerge v7.8.0 (\'River Man\') 32bit built on Mar 27 2015 16: 18: 02
    Библиотека кодирования : libebml v1.3.1 + libmatroska v1.4.2
    Видео
    Идентификатор : 1
    Формат : AVC
    Формат/Информация : Advanced Video Codec
    Профиль формата : Baseline@L4
    Настройки формата : 4 Ref Frames
    Параметр CABAC формата : Нет
    Параметр RefFrames формата : 4 кадра
    Идентификатор кодека : V_MPEG4/ISO/AVC
    Продолжительность : 26 м. 10 с.
    Вид битрейта : Постоянный
    Битрейт : 4705 Кбит/сек
    Номинальный битрейт : 5000 Кбит/сек
    Ширина : 1920 пикселей
    Высота : 1080 пикселей
    Соотношение сторон : 16: 9
    Режим частоты кадров : Постоянный
    Частота кадров : 25, 000 кадров/сек
    Стандарт вещания : PAL
    Цветовое пространство : YUV
    Субдискретизация насыщенности : 4: 2: 0
    Битовая глубина : 8 бит
    Тип развёртки : Прогрессивная
    Бит/(Пиксели*Кадры) : 0.091
    Размер потока : 881 Мбайт (96%)
    Default : Да
    Forced : Нет
    Цветовой диапазон : Limited
    Основные цвета : BT.709
    Характеристики трансфера : BT.709
    Коэффициенты матрицы : BT.709
    Аудио
    Идентификатор : 2
    Формат : AC-3
    Формат/Информация : Audio Coding 3
    Коммерческое название : Dolby Digital
    Идентификатор кодека : A_AC3
    Продолжительность : 26 м. 10 с.
    Вид битрейта : Постоянный
    Битрейт : 192 Кбит/сек
    Каналы : 2 канала
    ChannelLayout : L R
    Частота : 48, 0 КГц
    Частота кадров : 31, 250 кадров/сек (1536 SPF)
    Метод сжатия : С потерями
    Размер потока : 35, 9 Мбайт (4%)
    ServiceKind/String : Complete Main
    Default : Да
    Forced : Нет

    Скриншоты для ознакомления



    Все одноименные релизы в Клубе
    Время раздачи: 24/7 (мультитрекерная раздача) (до появления первых 3-5 скачавших)

    Онлайн видео Полярный (2019) WEB-DL [H.264



    Полярный (2019) WEB-DL [H.264/1080p-LQ] (сезон 1, серии 1-2 из 16) (обновляемая)
    Рейтинг →
     (голосов: 1, оценка 5/5, голосовать можно 1 раз )

    Другие торренты по теме:

  • Полярный / Polar (2019) WEB-DL [H.264 / 1080p-LQ] [EN / RU, EN, Others Sub]
  • Полярный / Polar (2019) WEB-DL [H.264 / 1080p-LQ] [VO]
  • Полярный / Polar (2019) WEB-DL [H.264 / 1080p] [MVO]
  • Полярный (2019) WEB-DL [H.264 / 720p-LQ] (сезон 1, серии 1-2 из 16) (обновляемая)


    • Комментарии (0):

      Информация

      Информация

        Посетители, находящиеся в группе Гости, не могут оставлять комментарии в данной новости.

        ↓ Меню




        ↓ Опрос

        Вы добавили сайт в закладки?
        Да
        Нет


        Популярное