.
Авторизация | Регистрация

bitok.xyz

» » Совсем чужие (2019) WEBRip [H.264] (сезон 1, серии 1-4 из 4) торрент скачать бесплатно


    Совсем чужие (2019) WEBRip [H.264] (сезон 1, серии 1-4 из 4) торрент скачать бесплатно

    Дата: 29-10-2019, 05:00 | .torrent скачали: 0

    Совсем чужие (2019) WEBRip [H.264] (сезон 1, серии 1-4 из 4)Производство: Россия | Кинокомпания Русское
    Жанр: мелодрама
    Режиссер: Валерий Девятилов

    Актеры
    Ольга Павловец, Иван Колесников, Дмитрий Бурукин, Данил Акутин, Антон Эльдаров, Виктория Адельфина, Анастасия Тимушкова, Алёна Митрошина, Яна Чечулина и др.

    Описание

    Элина и Юра поженились совсем юными по большой любви. Но совместная жизнь у них не задалась. Юре не везло с работой, а забеременевшей Элине приходилось одной обеспечивать семью. Когда ее терпению пришел конец, она прогнала мужа-неудачника. Спустя годы Элина успешна и богата, но в личной жизни несчастлива. Всю свою нерастраченную любовь она направляет на сына Ваню, который давно повзрослел. Не выдержав удушающей заботы, молодой человек решается на радикальный шаг. Ваня разыскивает отца и летит к нему в далекий провинциальный городок Заводск — туда, куда много лет назад его отправила Элина…

    Дата российской премьеры: 26 октября 2019
    Продолжительность: ~00: 45: 00 серия
    Качество видео: WEBRip
    Видео: AVC/H.264, 1024x576 (16: 9), ~1600 Kbps
    Аудио: AC3, 2 ch, 192 Kbps
    General
    Unique ID : 227103260724814046611053102164760559721 (0xAADA7F3D5825A2889023866EC5C78069)
    Complete name : D: Совсем_чужие_2019_WEBRip_AVCСовсем_чужие_2019_WEBRip_AVC_01-02.mkv
    Format : Matroska
    Format version : Version 2
    File size : 1.12 GiB
    Duration : 1 h 29 min
    Overall bit rate : 1 794 kb/s
    Encoded date : UTC 2019-10-27 01: 44: 00
    Writing application : mkvmerge v7.8.0 (\'River Man\') 32bit built on Apr 3 2015 12: 11: 22
    Writing library : libebml v1.3.1 + libmatroska v1.4.2
    Video
    ID : 1
    Format : AVC
    Format/Info : Advanced Video Codec
    Format profile : High@L4.1
    Format settings : CABAC/9 Ref Frames
    Format settings, CABAC : Yes
    Format settings, ReFrames : 9 frames
    Codec ID : V_MPEG4/ISO/AVC
    Duration : 1 h 29 min
    Bit rate : 1 600 kb/s
    Width : 1 024 pixels
    Height : 576 pixels
    Display aspect ratio : 16: 9
    Frame rate mode : Constant
    Frame rate : 25.000 FPS
    Color space : YUV
    Chroma subsampling : 4: 2: 0
    Bit depth : 8 bits
    Scan type : Progressive
    Bits/(Pixel*Frame) : 0.109
    Stream size : 997 MiB (87%)
    Writing library : x264 core 146 r2538 121396c
    Encoding settings : cabac=1/ref=9/deblock=1: -2: -1/analyse=0x3: 0x133/me=umh/subme=9/psy=1/psy_rd=1.00: 0.15/mixed_ref=1/me_range=32/chroma_me=1/trellis=2/8x8dct=1/cqm=0/deadzone=21, 11/fast_pskip=0/chroma_qp_offset=-3/threads=18/lookahead_threads=3/sliced_threads=0/nr=0/decimate=1/interlaced=0/bluray_compat=0/constrained_intra=0/bframes=9/b_pyramid=2/b_adapt=2/b_bias=0/direct=1/weightb=1/open_gop=0/weightp=2/keyint=250/keyint_min=25/scenecut=40/intra_refresh=0/rc=2pass/mbtree=0/bitrate=1600/ratetol=1.0/qcomp=0.60/qpmin=0/qpmax=69/qpstep=4/cplxblur=20.0/qblur=0.5/ip_ratio=1.40/pb_ratio=1.30/aq=2: 1.00
    Default : Yes
    Forced : No
    Color range : Limited
    Color primaries : BT.709
    Transfer characteristics : BT.709
    Matrix coefficients : BT.709
    Audio
    ID : 2
    Format : AC-3
    Format/Info : Audio Coding 3
    Commercial name : Dolby Digital
    Codec ID : A_AC3
    Duration : 1 h 29 min
    Bit rate mode : Constant
    Bit rate : 192 kb/s
    Channel(s) : 2 channels
    Channel layout : L R
    Sampling rate : 48.0 kHz
    Frame rate : 31.250 FPS (1536 SPF)
    Bit depth : 16 bits
    Compression mode : Lossy
    Stream size : 122 MiB (11%)
    Service kind : Complete Main
    Default : Yes
    Forced : No

    Скриншоты для ознакомления



    Все одноименные релизы в Клубе
    Время раздачи: 24/7 (до появления первых 3-5 скачавших)

    Онлайн видео Совсем чужие (2019) WEBRip [H.264] (сезон любимого сериала 1, серии 1



    Совсем чужие (2019) WEBRip [H.264] (сезон 1, серии 1-4 из 4)
    Рейтинг →
     (голосов: 1, оценка 5/5, голосовать можно 1 раз )

    Другие торренты по теме:

  • Совсем не простая история (2013) SATRip
  • Ни за, ни против (а совсем наоборот) / Ni pour, ni contre (bien au contraire) (2003) DVDRip
  • Когда его совсем не ждешь (2014) SATRip (серия 1-4 из 4)
  • Когда его совсем не ждёшь (2014) HDTVRip [720p] (Серии 1-2 из 2) скачать через торрент бесплатно
  • Когда его совсем не ждёшь (2014) HDTVRip [H.264 / 1080p-LQ] (серии 1-4 из 4)
  • Nat Geo Wild HD: Животные без правил (Совсем как люди) (2014) HDTVRip скачать через торрент бесплатно
  • Совсем низко / Low Down (2014) WEB-DL [H.264 / 720p-LQ] [VO] скачать через торрент бесплатно
  • Совсем низко / Low Down (2014) WEB-DL [720p] ATV скачать через торрент бесплатно


    • Комментарии (0):

      Информация

      Информация

        Посетители, находящиеся в группе Гости, не могут оставлять комментарии в данной новости.

        ↓ Меню




        ↓ Опрос

        Вы добавили сайт в закладки?
        Да
        Нет


        Популярное