.
Авторизация | Регистрация

bitok.xyz

» » След лисицы на камнях (2019) WEBRip [H.264] (серии 1-4 из 4) торрент скачать бесплатно


    След лисицы на камнях (2019) WEBRip [H.264] (серии 1-4 из 4) торрент скачать бесплатно

    Дата: 29-10-2019, 05:00 | .torrent скачали: 0

    След лисицы на камнях (2019) WEBRip [H.264] (серии 1-4 из 4)Производство: Россия
    Жанр: детектив
    Режиссер: Антон Павлючик

    Актеры
    Евгений Пронин, Алексей Вакулов, Светлана Смирнова-Кацагаджиева, Евгений Славский, Татьяна Казючиц, Евгений Иванов, Илья Савельев, Андрей Пынзару, Марина Старых, Евгений Филатов и др.

    Описание

    Частных детективов Макара Илюшина и Сергея Бабкина нанимает Андрей Калашников — настоящий подвижник, который вложил все свое состояние и всю душу в полуразрушенный старинный терем в деревне Камышовка.

    Дата российской премьеры: 27 октября 2019 (ТВЦ)
    Продолжительность: ~00: 46: 00 серия
    Качество видео: SATRip
    Видео: AVC/H.264, 1024x576 (16: 9), ~2000 Kbps
    Аудио: AC3, 2 ch, 192 KbpsОбщее
    Уникальный идентификатор : 228561555278742541257670447715768554218 (0xABF35AB655A6F38B977CBF0F0C5F52EA)
    Полное имя : G: След лисицы на камнях1 серия_След лисицы на камнях_rip by_Aleksan55.mkv
    Формат : Matroska
    Версия формата : Version 2
    Размер файла : 728 Мбайт
    Продолжительность : 46 м. 27 с.
    Общий поток : 2192 Кбит/сек
    Дата кодирования : UTC 2019-10-26 23: 03: 41
    Программа кодирования : mkvmerge v7.8.0 (\'River Man\') 32bit built on Apr 3 2015 12: 11: 22
    Библиотека кодирования : libebml v1.3.1 + libmatroska v1.4.2
    Видео
    Идентификатор : 1
    Формат : AVC
    Формат/Информация : Advanced Video Codec
    Профиль формата : High@L4.1
    Настройки формата : CABAC/12 Ref Frames
    Параметр CABAC формата : Да
    Параметр RefFrames формата : 12 кадров
    Идентификатор кодека : V_MPEG4/ISO/AVC
    Продолжительность : 46 м. 27 с.
    Битрейт : 2000 Кбит/сек
    Ширина : 1024 пикселя
    Высота : 576 пикселей
    Соотношение сторон : 16: 9
    Режим частоты кадров : Постоянный
    Частота кадров : 30, 000 кадров/сек
    Цветовое пространство : YUV
    Субдискретизация насыщенности : 4: 2: 0
    Битовая глубина : 8 бит
    Тип развёртки : Прогрессивная
    Бит/(Пиксели*Кадры) : 0.113
    Размер потока : 650 Мбайт (89%)
    Библиотека кодирования : x264 core 152 r2851kMod ba24899
    Настройки программы : cabac=1/ref=12/deblock=1: -2: -2/analyse=0x3: 0x133/me=umh/subme=9/psy=1/fade_compensate=0.00/psy_rd=1.00: 0.15/mixed_ref=0/me_range=24/chroma_me=1/trellis=2/8x8dct=1/cqm=0/deadzone=21, 11/fast_pskip=0/chroma_qp_offset=-3/threads=10/lookahead_threads=5/sliced_threads=0/nr=0/decimate=0/interlaced=0/bluray_compat=0/constrained_intra=0/bframes=12/b_pyramid=2/b_adapt=2/b_bias=0/direct=3/weightb=1/open_gop=0/weightp=2/keyint=250/keyint_min=25/scenecut=40/intra_refresh=0/rc_lookahead=40/rc=2pass/mbtree=1/bitrate=2000/ratetol=1.0/qcomp=0.60/qpmin=0/qpmax=69/qpstep=4/cplxblur=20.0/qblur=0.5/ip_ratio=1.40/aq=1: 1.00
    Default : Да
    Forced : Нет
    Цветовой диапазон : Limited
    Основные цвета : BT.709
    Характеристики трансфера : BT.709
    Коэффициенты матрицы : BT.709
    Аудио
    Идентификатор : 2
    Формат : AC-3
    Формат/Информация : Audio Coding 3
    Коммерческое название : Dolby Digital
    Идентификатор кодека : A_AC3
    Продолжительность : 46 м. 27 с.
    Вид битрейта : Постоянный
    Битрейт : 192 Кбит/сек
    Каналы : 2 канала
    ChannelLayout : L R
    Частота : 48, 0 КГц
    Частота кадров : 31, 250 кадров/сек (1536 SPF)
    Метод сжатия : С потерями
    Размер потока : 63, 8 Мбайт (9%)
    ServiceKind/String : Complete Main
    Default : Да
    Forced : Нет

    Скриншоты для ознакомления


    Все одноименные релизы в Клубе
    Время раздачи: (до появления первых 3-5 скачавших)

    Онлайн видео След лисицы на камнях (2019) WEBRip [H.264] (серии 1



    След лисицы на камнях (2019) WEBRip [H.264] (серии 1-4 из 4)
    Рейтинг →
     (голосов: 1, оценка 3/5, голосовать можно 1 раз )

    Другие торренты по теме:

  • Елена Михалкова | След лисицы на камнях (2018) [FB2]
  • Елена Михалкова | След лисицы на камнях (2018) [MP3]
  • След лисицы на камнях (2019) WEB-DL [H.264 / 1080p-LQ] (сезон 1, серии 1-4 из 4)
  • След лисицы на камнях (2019) WEB-DLRip (сезон 1, серии 1-4 из 4)


    • Комментарии (0):

      Информация

      Информация

        Посетители, находящиеся в группе Гости, не могут оставлять комментарии в данной новости.

        ↓ Меню




        ↓ Опрос

        Вы добавили сайт в закладки?
        Да
        Нет


        Популярное