.
Авторизация | Регистрация

bitok.xyz

» » Детство Шелдона / Молодой Шелдон / Young Sheldon (2018) WEB-DLRip [H.264 / 1080p-LQ] (сезон 2, серии 1-22 из 22) [UKR] торрент скачать бесплатно


    Детство Шелдона / Молодой Шелдон / Young Sheldon (2018) WEB-DLRip [H.264 / 1080p-LQ] (сезон 2, серии 1-22 из 22) [UKR] торрент скачать бесплатно

    Дата: 29-10-2019, 05:00 | .torrent скачали: 1

    Детство Шелдона / Молодой Шелдон / Young Sheldon (2018) WEB-DLRip [H.264 / 1080p-LQ] (сезон 2, серии 1-22 из 22) [UKR]Производство: США/Chuck Lorre Productions, Warner Bros. Television
    Жанр: комедия
    Режиссер: Майкл Цинберг, Марк Сендроуски, Джон Фавро

    Актеры
    Иэн Армитедж, Зои Перри, Лэнс Барбер, Монтана Джордан, Реган Реворд, Джим Парсонс, Энни Поттс, Даниэль Пиннок, Док Фэрроу, Валери Махаффей, Брайан Степанек и др.

    Описание

    Этот сериал рассказывает о ребенке-гении Шелдоне Купере и его непростом детстве в Восточном Техасе. Уже с малых лет он удивлял окружающих своим интеллектом и отличался особым взглядом на жизнь, что вызывало непонимание со стороны ровесников и взрослых. Большая любовь к поездам, увлечение физикой... Что еще сделало Шелдона именно таким, каким знают и любят его поклонники Теории большого взрыва?

    Возраст: 16+ (зрителям, достигшим 16 лет)
    Продолжительность: ~00: 22: 00 серия
    Качество видео: WEB-DLRip
    Язык озвучки: украинский
    Перевод: Многоголосый закадровый, профессиональный - Paramount Comedy Украина
    Видео: AVC/H.264, 1920х1080 (16: 9), ~2330 kbps
    Аудио: AC3, 2 ch, 192 Kbps, CBR - украинскийGeneral
    Unique ID : 180934268643547714052860130891132981410 (0x881EAC2F2993DDA89AAC9A8AA7E250A2)
    Complete name : F: MOVIESДетство Шелдона UKR (02 сезон любимого сериала) (2018) WEB-DLRip 1080Детство Шелдона 2 - 01 серия.mkv
    Format : Matroska
    Format version : Version 2
    File size : 357 MiB
    Duration : 19 min 22 s
    Overall bit rate : 2 573 kb/s
    Encoded date : UTC 2019-10-14 07: 36: 39
    Writing application : mkvmerge v7.8.0 (\'River Man\') 32bit built on Apr 3 2015 12: 11: 22
    Writing library : libebml v1.3.1 + libmatroska v1.4.2
    Video
    ID : 1
    Format : AVC
    Format/Info : Advanced Video Codec
    Format profile : High@L4
    Format settings : CABAC/4 Ref Frames
    Format settings, CABAC : Yes
    Format settings, Reference : 4 frames
    Codec ID : V_MPEG4/ISO/AVC
    Duration : 19 min 22 s
    Bit rate : 2 330 kb/s
    Width : 1 920 pixels
    Height : 1 080 pixels
    Display aspect ratio : 16: 9
    Frame rate mode : Constant
    Frame rate : 23.976 (24000/1001) FPS
    Color space : YUV
    Chroma subsampling : 4: 2: 0
    Bit depth : 8 bits
    Scan type : Progressive
    Bits/(Pixel*Frame) : 0.047
    Stream size : 323 MiB (91%)
    Writing library : x264 core 148 r2748 97eaef2
    Encoding settings : cabac=1/ref=3/deblock=1: 0: 0/analyse=0x3: 0x113/me=hex/subme=7/psy=1/psy_rd=1.00: 0.00/mixed_ref=1/me_range=16/chroma_me=1/trellis=0/8x8dct=1/cqm=0/deadzone=21, 11/fast_pskip=1/chroma_qp_offset=-2/threads=12/lookahead_threads=2/sliced_threads=0/nr=0/decimate=1/interlaced=0/bluray_compat=0/constrained_intra=0/bframes=8/b_pyramid=2/b_adapt=1/b_bias=0/direct=1/weightb=1/open_gop=0/weightp=2/keyint=50/keyint_min=5/scenecut=40/intra_refresh=0/rc_lookahead=40/rc=crf/mbtree=1/crf=24.0/qcomp=0.60/qpmin=0/qpmax=69/qpstep=4/ip_ratio=1.40/aq=1: 1.00
    Language : English
    Default : Yes
    Forced : No
    Audio
    ID : 2
    Format : AC-3
    Format/Info : Audio Coding 3
    Commercial name : Dolby Digital
    Codec ID : A_AC3
    Duration : 19 min 22 s
    Bit rate mode : Constant
    Bit rate : 192 kb/s
    Channel(s) : 2 channels
    Channel layout : L R
    Sampling rate : 44.1 kHz
    Frame rate : 28.711 FPS (1536 SPF)
    Bit depth : 16 bits
    Compression mode : Lossy
    Stream size : 26.6 MiB (7%)
    Service kind : Complete Main
    Default : Yes
    Forced : No
    Скриншоты для ознакомления


    Все одноименные релизы в Клубе
    Время раздачи: 24/7 (до появления первых 3-5 скачавших)

    Онлайн видео Детство Шелдона



    Детство Шелдона/Молодой Шелдон/Young Sheldon (2018) WEB-DLRip [H.264/1080p-LQ] (сезон 2, серии 1-22 из 22) [UKR]
    Рейтинг →
     (голосов: 1, оценка 4/5, голосовать можно 1 раз )

    Другие торренты по теме:

  • Детство Шелдона / Молодой Шелдон / Young Sheldon (2018) WEB-DLRip [H.264 / 1080p-LQ] (сезон 2, серии 1-22 из 22) [UKR]
  • Детство Шелдона / Молодой Шелдон / Young Sheldon (2017) WEB-DLRip [H.264 / 1080p-LQ] (сезон 1, серии 1-22 из 22) [UKR]
  • Детство Шелдона / Молодой Шелдон / Young Sheldon (2017) WEB-DLRip (сезон 1, серии 1 из 24) Newstudio (обновляемая) [AD]
  • Детство Шелдона / Молодой Шелдон / Young Sheldon (2017) WEB-DLRip [H.264 / 720p-LQ] (сезон 1, серии 1 из 24) Кураж-Бамбей (обновляемая) [AD]
  • Детство Шелдона / Молодой Шелдон / Young Sheldon (2017) WEB-DL [H.264 / 1080p-LQ] (сезон 1, серии 1-6 из 24) Кураж-Бамбей (обновляемая)
  • Детство Шелдона / Young Sheldon (2017) WEB-DLRip (сезон 1, серии 1-1 из 22) Кураж-Бамбей и True Dubbing Studio (обновляемая)
  • Детство Шелдона / Young Sheldon (2017) WEB-DL [H.264 / 1080p-LQ] (сезон 1, серии 1-1 из 22) Кураж-Бамбей и True Dubbing Studio (обновляемая)
  • Детство Шелдона / Молодой Шелдон / Young Sheldon (2017) WEB-DL [H.264 / 1080p-LQ] (сезон 1, серии 1-19 из 24) Кураж-Бамбей (обновляемая)


    • Комментарии (0):

      Информация

      Информация

        Посетители, находящиеся в группе Гости, не могут оставлять комментарии в данной новости.

        ↓ Меню




        ↓ Опрос

        Вы добавили сайт в закладки?
        Да
        Нет


        Популярное