.
Авторизация | Регистрация

bitok.xyz

» » Полиция Чикаго / Chicago PD (2019) WEB-Rip (сезон 7, серии 1-2 из 22) Шадинский (обновляемая) торрент скачать бесплатно


    Полиция Чикаго / Chicago PD (2019) WEB-Rip (сезон 7, серии 1-2 из 22) Шадинский (обновляемая) торрент скачать бесплатно

    Дата: 29-10-2019, 05:00 | .torrent скачали: 0

    Полиция Чикаго / Chicago PD (2019) WEB-Rip (сезон 7, серии 1-2 из 22) Шадинский (обновляемая)Производство: США
    Жанр: боевик, триллер, драма, криминал
    Режиссер: Марк Тинкер, Ник Гомез, Эрик Ла Салль

    Актеры
    Джейсон Бех, Джон Седа, София Буш, Джесси Ли Соффер, Патрик Флюгер, Марина Скверчати, Ларойс Хоукинс, Элиас Котеас, Эми Мортон, Арчи Као и др.

    Описание

    В центре сюжета находятся работники полицейского департамента города Чикаго, в частности две группы полицейских, которые находятся на разных ступенях власти.

    Возраст: 16+ (зрителям, достигшим 16 лет)
    Продолжительность: ~00: 43: 00 серия
    Качество видео: WEB-DL
    Перевод: Одноголосый, профессиональный - Шадинский
    Видео: XVID, 720x400 (16: 9), ~1800 kbps
    Аудио: AC3, 2 ch, 192 kbps - русский
    General
    Complete name : E: фильмыChicago.P.D.S07.2019.400p.MegaPeerChicago.P.D.S07E01.avi
    Format : AVI
    Format/Info : Audio Video Interleave
    File size : 600 MiB
    Duration : 41 min 58 s
    Overall bit rate : 1 999 kb/s
    Video
    ID : 0
    Format : MPEG-4 Visual
    Format profile : Advanced Simple@L5
    Format settings, BVOP : 1
    Format settings, QPel : No
    Format settings, GMC : No warppoints
    Format settings, Matrix : Custom
    Codec ID : XVID
    Codec ID/Hint : XviD
    Duration : 41 min 58 s
    Bit rate : 1 800 kb/s
    Width : 720 pixels
    Height : 400 pixels
    Display aspect ratio : 16: 9
    Frame rate : 23.976 (24000/1001) FPS
    Color space : YUV
    Chroma subsampling : 4: 2: 0
    Bit depth : 8 bits
    Scan type : Progressive
    Compression mode : Lossy
    Bits/(Pixel*Frame) : 0.261
    Stream size : 540 MiB (90%)
    Writing library : XviD 73
    Audio
    ID : 1
    Format : AC-3
    Format/Info : Audio Coding 3
    Mode extension : CM (complete main)
    Format settings, Endianness : Big
    Codec ID : 2000
    Duration : 41 min 58 s
    Bit rate mode : Constant
    Bit rate : 192 kb/s
    Channel(s) : 2 channels
    Channel positions : Front: L R
    Sampling rate : 48.0 kHz
    Frame rate : 31.250 FPS (1536 spf)
    Compression mode : Lossy
    Stream size : 57.6 MiB (10%)
    Alignment : Aligned on interleaves
    Interleave, duration : 64 ms (1.53 video frames)
    Interleave, preload duratio : 192 ms

    Скриншоты для ознакомления



    Все одноименные релизы в Клубе
    Время раздачи: с 19: 00 - 23: 00 (до появления первых 3-5 скачавших)

    Онлайн видео Полиция Чикаго



    Полиция Чикаго/Chicago PD (2019) WEB-Rip (сезон 7, серии 1-2 из 22) Шадинский (обновляемая)
    Рейтинг →
     (голосов: 1, оценка 5/5, голосовать можно 1 раз )

    Другие торренты по теме:

  • Полиция Чикаго / Chicago PD (2014) WEB-DL [H.264 / 720p-LQ] (Сезон 2, серия 1 из ) (Шадинский) (обновляемая)
  • Полиция Чикаго / Chicago PD (2015) WEB-DLRip [H.264 / 720p-LQ] (сезон 3, серии 1-2 из 7) Шадинский (обновляемая) скачать через торрент бесплатно
  • Полиция Чикаго / Chicago PD (2016) WEB-DL (H.264 / 720p-LQ) (сезон 4, серии 1 из 22) Шадинский (обновляемая)
  • Полиция Чикаго / Chicago PD (2016) WEB-DL (H.264 / 720p-LQ) (сезон 4, серии 1-14 из 22) Шадинский (обновляемая)
  • Полиция Чикаго / Chicago PD (2017) WEB-DL [H.264 / 720p-LQ] (сезон 5, серии 1-22 из 22) Шадинский
  • Полиция Чикаго / Chicago PD (2018) WEB-DLRip [H.264 / 1080p-LQ] (сезон 6, серии 1-18 из 22) Шадинский [AD] (обновляемая)
  • Полиция Чикаго / Chicago PD (2019) WEB-DL / WEBRip [H.264 / 1080p-LQ] (сезон 7, серии 1-3 из 22) TVShows (обновляемая)


    • Комментарии (0):

      Информация

      Информация

        Посетители, находящиеся в группе Гости, не могут оставлять комментарии в данной новости.

        ↓ Меню




        ↓ Опрос

        Вы добавили сайт в закладки?
        Да
        Нет


        Популярное