.
Авторизация | Регистрация

bitok.xyz

» » Пожарные Чикаго / Чикаго в Огне / Chicago Fire (2019) WEB-Rip (сезон 8, серии 1-3 из 22) Шадинский (обновляемая) торрент скачать бесплатно


    Пожарные Чикаго / Чикаго в Огне / Chicago Fire (2019) WEB-Rip (сезон 8, серии 1-3 из 22) Шадинский (обновляемая) торрент скачать бесплатно

    Дата: 29-10-2019, 05:00 | .torrent скачали: 0

    Пожарные Чикаго / Чикаго в Огне / Chicago Fire (2019) WEB-Rip (сезон 8, серии 1-3 из 22) Шадинский (обновляемая)Производство: США/Wolf Films, Universal Television
    Жанр: драма
    Режиссер: Джо Чаппелль, Реза Табризи, Сэнфорд Букставер

    Актеры
    Джесси Спенсер, Тейлор Кинни, Кристиан Столте, Имонн Уолкер, Рэнди Флаглер, Джо Миносо, Дэвид Эйгенберг, Юрий Сардаров, Моника Реймунд, Энтони Феррарис и др.

    Описание

    Сериал рассказывает о самой тяжелой и опасной работе — пожарных и спасателей чикагского отделения Firehouse 51. Несмотря на повседневные геройства мужчин и женщин, их огромная самоотдача приводит к личным потерям. Главный герой Мэтью Кейси, прирожденный лидер и настоящий пожарный. Однако расставание с девушкой заставляет его взглянуть по-новому на многие вещи. Кроме этого, Кейси постоянно находится в конфронтации с другим членом своей команды — лейтенантом Келли Северайдом.

    Возраст: 16+ (зрителям, достигшим 16 лет)
    Продолжительность: ~00: 42: 00 серия
    Качество видео: WEB-DL
    Перевод: Одноголосый, профессиональный - Шадинский
    Видео: XVID, 720x400 (16: 9), ~1800 kbps
    Аудио: AC3, 2 ch, 192 kbps - русский
    General
    Complete name : E: фильмыChicago.Fire.S08.2019.400p.MegaPeerChicago.Fire.S08E01.avi
    Format : AVI
    Format/Info : Audio Video Interleave
    File size : 597 MiB
    Duration : 41 min 46 s
    Overall bit rate : 1 999 kb/s
    Video
    ID : 0
    Format : MPEG-4 Visual
    Format profile : Advanced Simple@L5
    Format settings, BVOP : 1
    Format settings, QPel : No
    Format settings, GMC : No warppoints
    Format settings, Matrix : Custom
    Codec ID : XVID
    Codec ID/Hint : XviD
    Duration : 41 min 46 s
    Bit rate : 1 800 kb/s
    Width : 720 pixels
    Height : 400 pixels
    Display aspect ratio : 16: 9
    Frame rate : 23.976 (24000/1001) FPS
    Color space : YUV
    Chroma subsampling : 4: 2: 0
    Bit depth : 8 bits
    Scan type : Progressive
    Compression mode : Lossy
    Bits/(Pixel*Frame) : 0.261
    Stream size : 538 MiB (90%)
    Writing library : XviD 73
    Audio
    ID : 1
    Format : AC-3
    Format/Info : Audio Coding 3
    Mode extension : CM (complete main)
    Format settings, Endianness : Big
    Codec ID : 2000
    Duration : 41 min 46 s
    Bit rate mode : Constant
    Bit rate : 192 kb/s
    Channel(s) : 2 channels
    Channel positions : Front: L R
    Sampling rate : 48.0 kHz
    Frame rate : 31.250 FPS (1536 spf)
    Compression mode : Lossy
    Stream size : 57.4 MiB (10%)
    Alignment : Aligned on interleaves
    Interleave, duration : 64 ms (1.53 video frames)
    Interleave, preload duratio : 192 ms

    Скриншоты для ознакомления



    Все одноименные релизы в Клубе
    Время раздачи: 24/7 (до появления первых 3-5 скачавших)

    Онлайн видео Пожарные Чикаго



    Пожарные Чикаго/Чикаго в Огне/Chicago Fire (2019) WEB-Rip (сезон 8, серии 1-3 из 22) Шадинский (обновляемая)
    Рейтинг →
     (голосов: 1, оценка 3/5, голосовать можно 1 раз )

    Другие торренты по теме:

  • Пожарные Чикаго / Чикаго в Огне / Chicago Fire (2014) WEB-DLRip (сезон 3, серии 1 из 22) Шадинский (обновляемая) скачать через торрент бесплатно
  • Пожарные Чикаго / Чикаго в Огне / Chicago Fire (2015) HDTVRip [H.264 / 720p-LQ] (сезон 4, серии 1-1 из 23) Шадинский (Обновляемая) скачать через торрент бесплатно
  • Пожарные Чикаго / Чикаго в Огне / Chicago Fire (2016) WEB-DLRip (сезон 5, серия 1 из 22) Шадинский (обновляемая)
  • Пожарные Чикаго / Чикаго в Огне / Chicago Fire (2016) WEB-DLRip (сезон 5, серии 1-16 из 22) Шадинский (обновляемая)
  • Пожарные Чикаго / Чикаго в Огне / Chicago Fire (2018) WEB-DL [H.264 / 1080p-LQ] (сезон 7, серии 1-9 из 23) TVShows (обновляемая)
  • Пожарные Чикаго / Чикаго в Огне / Chicago Fire (2019) WEB-DL [H.264 / 1080p-LQ] (сезон 8, серии 1-4 из 22) TVShows (обновляемая)
  • Пожарные Чикаго / Chicago Fire (2012) BDRip (Сезон 1, серии 1-24 из 24) [SDI Media] скачать через торрент бесплатно
  • Пожарные Чикаго / Chicago Fire (2017) WEB-DL [H.264 / 720p-LQ] (сезон 6, серии 1-23 из 23) Шадинский


    • Комментарии (0):

      Информация

      Информация

        Посетители, находящиеся в группе Гости, не могут оставлять комментарии в данной новости.

        ↓ Меню




        ↓ Опрос

        Вы добавили сайт в закладки?
        Да
        Нет


        Популярное