.
Авторизация | Регистрация

bitok.xyz

» » Трюк / Trick (2019) WEB-DLRip [MVO] [AD] торрент скачать бесплатно


    Трюк / Trick (2019) WEB-DLRip [MVO] [AD] торрент скачать бесплатно

    Дата: 30-10-2019, 05:00 | .torrent скачали: 0

    Трюк / Trick (2019) WEB-DLRip [MVO] [AD]Производство: США/Trix2019, Chimney, Durango Pictures
    Жанр: Ужасы
    Режиссер: Патрик Люссье

    Актеры
    Омар Эппс, Джейми Кеннеди, Том Эткинс, Эллен Эдейр, Ванесса Аспильяга, Алекс Бро, Кристина Рейс, Тодд Фармер, Гэри Дж. Танниклифф, Аарон Далла Вилла

    Описание

    Сюжет разворачивается вокруг опытного детектива, который выслеживает серийного убийцу по имени Трик, который держит в страхе небольшой город.

    Дата мировой премьеры: 18 октября 2019
    Продолжительность: 01: 39: 55
    Качество видео: WEB-DLRip
    Перевод: Многоголосый закадровый, профессиональный (Синема УС)
    Субтитры: Отсутствуют
    Реклама: Присутствует баннер.
    Видео: XviD, 720x304, ~1659 Kbps
    Аудио: AC-3, 2 ch, 256 Kbps
    Общее
    Полное имя : D: NNMТрюкTrick.2019.WEB-DLRip.avi
    Формат : AVI
    Формат/Информация : Audio Video Interleave
    Профиль формата : OpenDML
    Размер файла : 1, 35 Гбайт
    Продолжительность : 1 ч. 39 м.
    Общий поток : 1928 Кбит/сек
    Видео
    Идентификатор : 0
    Формат : MPEG-4 Visual
    Профиль формата : Advanced Simple@L5
    Настройки формата : BVOP2/Custom Matrix
    Параметр BVOP формата : 2
    Параметр QPel формата : Нет
    Параметр GMC формата : Без точки перехода
    Параметр матрицы формата : Выборочная
    Идентификатор кодека : XVID
    Идентификатор кодека/Подсказка : XviD
    Продолжительность : 1 ч. 39 м.
    Битрейт : 1659 Кбит/сек
    Ширина : 720 пикселей
    Высота : 304 пикселя
    Соотношение сторон : 2, 35: 1
    Частота кадров : 23, 976 (24000/1001) кадра/сек
    Цветовое пространство : YUV
    Субдискретизация насыщенности : 4: 2: 0
    Битовая глубина : 8 бит
    Тип развёртки : Прогрессивная
    Метод сжатия : С потерями
    Бит/(Пиксели*Кадры) : 0.316
    Размер потока : 1, 16 Гбайт (86%)
    Библиотека кодирования : XviD 1.2.1 (UTC 2008-12-04)
    Аудио
    Идентификатор : 1
    Формат : AC-3
    Формат/Информация : Audio Coding 3
    Коммерческое название : Dolby Digital
    Идентификатор кодека : 2000
    Продолжительность : 1 ч. 39 м.
    Вид битрейта : Постоянный
    Битрейт : 256 Кбит/сек
    Каналы : 2 канала
    ChannelLayout : L R
    Частота : 48, 0 КГц
    Частота кадров : 31, 250 кадров/сек (1536 SPF)
    Битовая глубина : 16 бит
    Метод сжатия : С потерями
    Размер потока : 183 Мбайт (13%)
    Выравнивание : Соединение по промежуткам
    Продолжительность промежутка : 32 мс. (0, 77 видеокадр)
    ServiceKind/String : Complete Main

    Скриншоты для ознакомления



    Все одноименные релизы в Клубе Время раздачи: 24/7 (до появления первых 3-5 скачавших)

    Онлайн видео Трюк



    Трюк/Trick (2019) WEB-DLRip [MVO] [AD]
    Рейтинг →
     (голосов: 1, оценка 4/5, голосовать можно 1 раз )

    Другие торренты по теме:

  • NG: Больше чем фокусы с Ди Эм Си: Смертельный трюк / Beyond Magic With DMC (2014) SATRip скачать через торрент бесплатно
  • excelok | 201 трюк Microsoft Excel (2017) [PDF]
  • excelok | 151 трюк Microsoft Word (2017) [PDF]
  • Игорь Воронов | Последний трюк (2019) [MP3]


    • Комментарии (0):

      Информация

      Информация

        Посетители, находящиеся в группе Гости, не могут оставлять комментарии в данной новости.

        ↓ Меню




        ↓ Опрос

        Вы добавили сайт в закладки?
        Да
        Нет


        Популярное