.
Авторизация | Регистрация

bitok.xyz

» » Переворот / Wendezeit (2019) HDTVRip [MVO] [AD] торрент скачать бесплатно


    Переворот / Wendezeit (2019) HDTVRip [MVO] [AD] торрент скачать бесплатно

    Дата: 30-10-2019, 05:00 | .torrent скачали: 0

    Переворот / Wendezeit (2019) HDTVRip [MVO] [AD]Производство: Германия/MOOVIE the art of entertainment GmbH
    Жанр: Триллер, драма, мелодрама
    Режиссер: Sven Bohse

    Актеры
    Михаэль Бараль, Лилли Барши, Оскар Белтон, Александр Байер, Майкл Дейвис, Милена Драйсиг, Артём Гильц, Карстен Хэйес, Андре Хеннике, Марк Хоземанн, Ульрих Томсен

    Описание

    Татьяна Лешке - двойной агент, завербованная от Главного управления разведки ГДР в ЦРУ. Всю жизнь ей приходится скрываться под именем Саскии Штарке и жить чужой жизнью. Удастся ли Татьяне помочь своей стране, или ЦРУ узнает о ее секретах?

    Дата мировой премьеры: 21 августа 2019
    Продолжительность: 01: 59: 44
    Качество видео: HDTVRip
    Перевод: Многоголосый закадровый, профессиональный (Синема УС)
    Субтитры: Отсутствуют
    Реклама: Присутствует баннер.
    Видео: XviD, 720x400, ~2017 Kbps
    Аудио: AC-3, 2 ch, 384 Kbps
    Общее
    Полное имя : D: NNMПереворотWendezeit.2019.HDTVRip.avi
    Формат : AVI
    Формат/Информация : Audio Video Interleave
    Профиль формата : OpenDML
    Размер файла : 2, 02 Гбайт
    Продолжительность : 1 ч. 59 м.
    Общий поток : 2411 Кбит/сек
    Видео
    Идентификатор : 0
    Формат : MPEG-4 Visual
    Профиль формата : Advanced Simple@L5
    Настройки формата : BVOP2/Custom Matrix
    Параметр BVOP формата : 2
    Параметр QPel формата : Нет
    Параметр GMC формата : Без точки перехода
    Параметр матрицы формата : Выборочная
    Идентификатор кодека : XVID
    Идентификатор кодека/Подсказка : XviD
    Продолжительность : 1 ч. 59 м.
    Битрейт : 2017 Кбит/сек
    Ширина : 720 пикселей
    Высота : 400 пикселей
    Соотношение сторон : 16: 9
    Частота кадров : 23, 976 (24000/1001) кадра/сек
    Цветовое пространство : YUV
    Субдискретизация насыщенности : 4: 2: 0
    Битовая глубина : 8 бит
    Тип развёртки : Прогрессивная
    Метод сжатия : С потерями
    Бит/(Пиксели*Кадры) : 0.292
    Размер потока : 1, 69 Гбайт (84%)
    Библиотека кодирования : XviD 1.2.1 (UTC 2008-12-04)
    Аудио
    Идентификатор : 1
    Формат : AC-3
    Формат/Информация : Audio Coding 3
    Коммерческое название : Dolby Digital
    Идентификатор кодека : 2000
    Продолжительность : 1 ч. 59 м.
    Вид битрейта : Постоянный
    Битрейт : 384 Кбит/сек
    Каналы : 2 канала
    ChannelLayout : L R
    Частота : 48, 0 КГц
    Частота кадров : 31, 250 кадров/сек (1536 SPF)
    Битовая глубина : 16 бит
    Метод сжатия : С потерями
    Размер потока : 329 Мбайт (16%)
    Выравнивание : Соединение по промежуткам
    Продолжительность промежутка : 32 мс. (0, 77 видеокадр)
    ServiceKind/String : Complete Main

    Скриншоты для ознакомления



    Все одноименные релизы в Клубе Время раздачи: 24/7 (до появления первых 3-5 скачавших)

    Онлайн видео Переворот



    Переворот/Wendezeit (2019) HDTVRip [MVO] [AD]
    Рейтинг →
     (голосов: 1, оценка 4/5, голосовать можно 1 раз )

    Другие торренты по теме:

  • Фильм Леонида Млечина. Никита Хрущёв. Дворцовый переворот - 1964 (2014.10.16) SATRip скачать через торрент бесплатно
  • Александр Щелоков | Переворот [сборник] (1995) [PDF, DJVU] скачать через торрент бесплатно
  • Ф. Энгельс | Анти-Дюринг. Переворот в науке, произведенный господином Евгением Дюрингом (1988) [DJVU, PDF]
  • Николай Андреев | Переворот (2016) [MP3]
  • Люк Уильямс | Переворот. Проверенная методика захвата рынка (2012) [PDF, EPUB]
  • А. И. Иванов | Возникновение марксизма - революционный переворот в философии (1956) [DJVU, PDF]
  • Ф. Энгельс | Анти-Дюринг. Переворот в науке, произведенный господином Евгением Дюрингом (1950) [DJVU, PDF]
  • Ленин и октябрьский переворот [Как жил и работал и что писал В. И. Ленин накануне октября и в октябрьские дни] (1924) [DJVU, PDF]


    • Комментарии (0):

      Информация

      Информация

        Посетители, находящиеся в группе Гости, не могут оставлять комментарии в данной новости.

        ↓ Меню




        ↓ Опрос

        Вы добавили сайт в закладки?
        Да
        Нет


        Популярное